NCIS New Orleans S06E12 the good doctor s03e16 Wwe hindi ettv Birds of Prey (and the Fantabulous Emancipation of One Harley Quinn) 2020 manifest Batwoman Black lightning picard frozen ii 2019 hunters avenue 5 Black Lightning S03E14 Knives Out 2019 rq.mp4 ford v ferrari 2019 better call saul s05e01 star wars vikings underwater 2020 Doctor Who midway 2019 the outsider greys anatomy Outlander S05E02 1917 2019 Homeland S08E03 bad boys for life 2020 supergirl s05e13 bombshell parasite 2019 Joker 2019 evo ddr fantasy island 2020 The Walking Dead S10E09 Batwoman S01E13 Supergirl The Bachelor S24E09 star trek picard ethd better call saul Better Call Saul S05E02 The Rookie S02E11 etmovies etrg The Gentlemen 2019 The good doctor parasite the walking dead  the outsider s01e08 Sonic the Hedgehog 2020 Hunters S01E01 charlies angels 2019 jumanji the next level 2019 star wars the rise of skywalker 2019 superman red son ITA yts terminator dark fate 2019 dolittle 2020 Star Trek Picard S01E05 ncis 21 bridges 2019 xxx the rookie 9-1-1 Lone Star S01E07 The Call of the Wild 2020 homeland 
Warning! Use a V.P.N when Downloading Torrents!
Your IP Address is 34.239.151.158. Location is United States
Your Internet Provider is tracking your torrent activity! Hide your IP ADDRESS with a V.P.N!
We strongly recommend using ExpressVP-N to anonymize your torrenting. 30 Day Money Back Guarantee!
Try it Now!
ETTV Recommended TV Shows
DCs.Legends.of.Tomorrow.S05E06.HDTV.x264-SVA[ettv] torrent
This.Is.Us.S04E15.HDTV.x264-SVA[ettv] torrent
New.Amsterdam.2018.S02E15.HDTV.x264-SVA[ettv] torrent
The.Flash.2014.S06E13.WEB.H264-XLF[ettv] torrent

ETTV Recommended SD
Verotika.2019.HDRip.XViD.AC3-ETRG torrent
Superman Red Son.2020.HDRip.XviD.AC3-EVO torrent
Ne.Zha.2019.PROPER.HDRip.XviD.AC3-EVO torrent
Rag.Doll.2020.HDRip.XviD.AC3-EVO torrent

ETTV Recommended HD
Rag.Doll.2020.1080p.WEB-DL.H264.AC3-EVO[EtHD] torrent
Nesting.Dolls.2019.1080p.WEB-DL.H264.AC3-EVO[EtHD] torrent
Trouble 2019 720p WEB-DL x264 AC3-ETRG torrent
Bombshell.2019.1080p.WEB-DL.x264.AAC-ETRG torrent

ETTV Recommended UHD
Alita.Battle.Angel.2019.BDRip.2160p.UHD.HDR10+.Multi.TrueHD.DD5.1.ETRG torrent
Knives.Out.2019.2160p.UHD.BluRay.x265.10bit.HDR.DTS-HD.MA.TrueHD.7.1.Atmos-SWTYBLZ torrent
Color Out of Space (2019) (2160p BluRay x265 HEVC 10bit AAC 5.1 Tigole) torrent
Lone Survivor (2013) (2160p BluRay x265 HEVC 10bit HDR AAC 7.1 Tigole) torrent

ETTV Recommended Cam
Emma 2020 720p HDCAM-C1NEM4 torrent
Sonic the Hedgehog.2020.READNFO.HDCAM.x264-ETRG torrent
Brahms The Boy 2 2020 HDCAM x264 -ETRG torrent
The Call of the Wild 2020 HDCAM NO ADS x264-ETRG torrent

ETTV Recommended Foreign
Parasite (2019) (2160p BluRay x265 HEVC 10bit HDR AAC 7.1 Bandi) [QxR] torrent
Suck Me Shakespeer 2 (2015) 720p BluRay x264 Eng Subs [Dual Audio] [Hindi DD 2.0 - German 2.0] Exclusive By -=!Dr.STAR!=- torrent
Shylock (2020)[Malayalam 720p HD AVC DD5.1 - x264 - 1.3GB - ESubs] torrent
Hitman Agent Jun 2020 720p Korean HDRip x264 Ganool torrent


Download Torrent "Fast and Furious Presents- Hobbs and Shaw 2019 (1080p x265 q22 S75 Joy).mk..."

IMDB Details
Description:

N/A

Genre:

N/A

Download Torrent (Magnet)
Download Torrent (File)
Seeds: 254
Leechers: 48
Completed: 3,026 
Last Checked: 04-11-2019 14:38:43


Loading...
Details
Title:Fast and Furious Presents- Hobbs and Shaw 2019 (1080p x265 q22 S75 Joy).mk...
Description:







Media Information


Media Information

Code:
General
Format                                   : Matroska
Format version                           : Version 4 / Version 2
File size                                : 1.99 GiB
Duration                                 : 2 h 16 min
Overall bit rate                         : 2 087 kb/s
Movie name                               : Fast and Furious Presents- Hobbs and Shaw 2019  (1080p x265 q22 S75 Joy)[UTR]
Encoded date                             : UTC 2019-11-03 20:35:57
Writing application                      : mkvmerge v32.0.0 ('Astral Progressions') 64-bit
Writing library                          : libebml v1.3.7 + libmatroska v1.5.0
Cover                                    : Yes
Attachments                              : cover.jpg
Writing frontend                         : StaxRip v2.0.2.0, Encoded by JoyBell

Video
ID                                       : 1
Format                                   : HEVC
Format/Info                              : High Efficiency Video Coding
Format profile                           : Main [email protected]@Main
Codec ID                                 : V_MPEGH/ISO/HEVC
Duration                                 : 2 h 16 min
Bit rate                                 : 1 553 kb/s
Width                                    : 1 920 pixels
Height                                   : 800 pixels
Display aspect ratio                     : 2.40:1
Frame rate mode                          : Constant
Frame rate                               : 23.976 (24000/1001) FPS
Color space                              : YUV
Chroma subsampling                       : 4:2:0
Bit depth                                : 10 bits
Bits/(Pixel*Frame)                       : 0.042
Stream size                              : 1.48 GiB (74%)
Writing library                          : x265 3.1.2+1-76650bab70f9:[Windows][MSVC 1922][64 bit] 10bit
Encoding settings                        : cpuid=1111039 / frame-threads=4 / numa-pools=16 / wpp / no-pmode / no-pme / no-psnr / ssim / log-level=2 / input-csp=1 / input-res=1920x800 / interlace=0 / total-frames=196646 / level-idc=0 / high-tier=1 / uhd-bd=0 / ref=4 / no-allow-non-conformance / no-repeat-headers / annexb / no-aud / no-hrd / info / hash=0 / no-temporal-layers / open-gop / min-keyint=23 / keyint=250 / gop-lookahead=0 / bframes=8 / b-adapt=2 / b-pyramid / bframe-bias=20 / rc-lookahead=80 / lookahead-slices=4 / scenecut=40 / radl=0 / no-splice / no-intra-refresh / ctu=64 / min-cu-size=8 / rect / no-amp / max-tu-size=32 / tu-inter-depth=1 / tu-intra-depth=1 / limit-tu=0 / rdoq-level=2 / dynamic-rd=0.00 / ssim-rd / signhide / no-tskip / nr-intra=0 / nr-inter=0 / constrained-intra / strong-intra-smoothing / max-merge=5 / limit-refs=3 / limit-modes / me=3 / subme=5 / merange=57 / temporal-mvp / weightp / no-weightb / no-analyze-src-pics / deblock=-2:-2 / sao / sao-non-deblock / rd=4 / early-skip / rskip / no-fast-intra / no-tskip-fast / no-cu-lossless / no-b-intra / splitrd-skip / rdpenalty=0 / psy-rd=2.50 / psy-rdoq=1.50 / no-rd-refine / no-lossless / cbqpoffs=0 / crqpoffs=0 / rc=crf / crf=21.5 / qcomp=0.60 / qpstep=4 / stats-write=0 / stats-read=0 / ipratio=1.40 / pbratio=1.30 / aq-mode=1 / aq-strength=1.00 / cutree / zone-count=0 / no-strict-cbr / qg-size=32 / no-rc-grain / qpmax=69 / qpmin=0 / no-const-vbv / sar=0 / overscan=0 / videoformat=5 / range=0 / colorprim=2 / transfer=2 / colormatrix=2 / chromaloc=0 / display-window=0cll=0,0 / min-luma=0 / max-luma=1023 / log2-max-poc-lsb=8 / vui-timing-info / vui-hrd-info / slices=1 / no-opt-qp-pps / no-opt-ref-list-length-pps / no-multi-pass-opt-rps / scenecut-bias=0.05 / no-opt-cu-delta-qp / no-aq-motion / no-hdr / no-hdr-opt / no-dhdr10-opt / no-idr-recovery-sei / analysis-reuse-level=5 / scale-factor=0 / refine-intra=0 / refine-inter=0 / refine-mv=0 / refine-ctu-distortion=0 / no-limit-sao / ctu-info=0 / no-lowpass-dct / refine-analysis-type=0 / copy-pic=1 / max-ausize-factor=1.0 / no-dynamic-refine / no-single-sei / hevc-aq / no-svt / no-field / qp-adaptation-range=1.00
Default                                  : Yes
Forced                                   : No

Audio #1
ID                                       : 2
Format                                   : AAC
Format/Info                              : Advanced Audio Codec
Format profile                           : LC
Codec ID                                 : A_AAC
Duration                                 : 2 h 16 min
Bit rate                                 : 449 kb/s
Channel(s)                               : 8 channels
Channel positions                        : Front: L C R, Side: L R, Back: L R, LFE
Sampling rate                            : 48.0 kHz
Frame rate                               : 46.875 FPS (1024 spf)
Compression mode                         : Lossy
Delay relative to video                  : 9 ms
Stream size                              : 439 MiB (22%)
Language                                 : English
Default                                  : No
Forced                                   : No

Audio #2
ID                                       : 3
Format                                   : AAC
Format/Info                              : Advanced Audio Codec
Format profile                           : HE-AAC / LC
Codec ID                                 : A_AAC
Duration                                 : 2 h 16 min
Bit rate                                 : 45.0 kb/s
Channel(s)                               : 2 channels
Channel positions                        : Front: L R
Sampling rate                            : 48.0 kHz / 24.0 kHz
Frame rate                               : 23.438 FPS (1024 spf)
Compression mode                         : Lossy
Delay relative to video                  : 31 ms
Stream size                              : 44.0 MiB (2%)
Title                                    : Commentary
Language                                 : English
Default                                  : No
Forced                                   : No

Subtitle #1
ID                                       : 4
Format                                   : PGS
Muxing mode                              : zlib
Codec ID                                 : S_HDMV/PGS
Codec ID/Info                            : Picture based subtitle format used on BDs/HD-DVDs
Duration                                 : 2 h 16 min
Bit rate                                 : 53.8 kb/s
Count of elements                        : 4408
Stream size                              : 52.6 MiB (3%)
Language                                 : English
Default                                  : No
Forced                                   : No

Subtitle #2
ID                                       : 5
Format                                   : VobSub
Muxing mode                              : zlib
Codec ID                                 : S_VOBSUB
Codec ID/Info                            : Picture based subtitle format used on DVDs
Duration                                 : 2 h 16 min
Bit rate                                 : 8 268 b/s
Count of elements                        : 1655
Stream size                              : 8.04 MiB (0%)
Language                                 : French
Default                                  : No
Forced                                   : No

Subtitle #3
ID                                       : 6
Format                                   : UTF-8
Codec ID                                 : S_TEXT/UTF8
Codec ID/Info                            : UTF-8 Plain Text
Duration                                 : 2 h 8 min
Bit rate                                 : 92 b/s
Count of elements                        : 1991
Stream size                              : 86.7 KiB (0%)
Language                                 : Arabic
Default                                  : No
Forced                                   : No

Subtitle #4
ID                                       : 7
Format                                   : UTF-8
Codec ID                                 : S_TEXT/UTF8
Codec ID/Info                            : UTF-8 Plain Text
Duration                                 : 2 h 15 min
Bit rate                                 : 149 b/s
Count of elements                        : 1970
Stream size                              : 148 KiB (0%)
Language                                 : Bengali
Default                                  : No
Forced                                   : No

Subtitle #5
ID                                       : 8
Format                                   : UTF-8
Codec ID                                 : S_TEXT/UTF8
Codec ID/Info                            : UTF-8 Plain Text
Duration                                 : 2 h 15 min
Bit rate                                 : 81 b/s
Count of elements                        : 1654
Stream size                              : 81.0 KiB (0%)
Language                                 : Bulgarian
Default                                  : No
Forced                                   : No

Subtitle #6
ID                                       : 9
Format                                   : UTF-8
Codec ID                                 : S_TEXT/UTF8
Codec ID/Info                            : UTF-8 Plain Text
Duration                                 : 2 h 15 min
Bit rate                                 : 49 b/s
Count of elements                        : 1588
Stream size                              : 49.3 KiB (0%)
Language                                 : Croatian
Default                                  : No
Forced                                   : No

Subtitle #7
ID                                       : 10
Format                                   : UTF-8
Codec ID                                 : S_TEXT/UTF8
Codec ID/Info                            : UTF-8 Plain Text
Duration                                 : 2 h 15 min
Bit rate                                 : 52 b/s
Count of elements                        : 1412
Stream size                              : 51.6 KiB (0%)
Language                                 : Czech
Default                                  : No
Forced                                   : No

Subtitle #8
ID                                       : 11
Format                                   : UTF-8
Codec ID                                 : S_TEXT/UTF8
Codec ID/Info                            : UTF-8 Plain Text
Duration                                 : 2 h 15 min
Bit rate                                 : 45 b/s
Count of elements                        : 1192
Stream size                              : 45.2 KiB (0%)
Language                                 : Dutch
Default                                  : No
Forced                                   : No

Subtitle #9
ID                                       : 12
Format                                   : UTF-8
Codec ID                                 : S_TEXT/UTF8
Codec ID/Info                            : UTF-8 Plain Text
Duration                                 : 2 h 15 min
Bit rate                                 : 99 b/s
Count of elements                        : 1941
Stream size                              : 98.6 KiB (0%)
Language                                 : Persian
Default                                  : No
Forced                                   : No

Subtitle #10
ID                                       : 13
Format                                   : UTF-8
Codec ID                                 : S_TEXT/UTF8
Codec ID/Info                            : UTF-8 Plain Text
Duration                                 : 2 h 15 min
Bit rate                                 : 48 b/s
Count of elements                        : 1619
Stream size                              : 47.8 KiB (0%)
Language                                 : French
Default                                  : No
Forced                                   : No

Subtitle #11
ID                                       : 14
Format                                   : UTF-8
Codec ID                                 : S_TEXT/UTF8
Codec ID/Info                            : UTF-8 Plain Text
Duration                                 : 2 h 15 min
Bit rate                                 : 50 b/s
Count of elements                        : 1372
Stream size                              : 50.5 KiB (0%)
Language                                 : German
Default                                  : No
Forced                                   : No

Subtitle #12
ID                                       : 15
Format                                   : UTF-8
Codec ID                                 : S_TEXT/UTF8
Codec ID/Info                            : UTF-8 Plain Text
Duration                                 : 2 h 15 min
Bit rate                                 : 101 b/s
Count of elements                        : 1666
Stream size                              : 100 KiB (0%)
Language                                 : Greek
Default                                  : No
Forced                                   : No

Subtitle #13
ID                                       : 16
Format                                   : UTF-8
Codec ID                                 : S_TEXT/UTF8
Codec ID/Info                            : UTF-8 Plain Text
Duration                                 : 2 h 15 min
Bit rate                                 : 89 b/s
Count of elements                        : 1676
Stream size                              : 88.8 KiB (0%)
Language                                 : Hebrew
Default                                  : No
Forced                                   : No

Subtitle #14
ID                                       : 17
Format                                   : UTF-8
Codec ID                                 : S_TEXT/UTF8
Codec ID/Info                            : UTF-8 Plain Text
Duration                                 : 2 h 15 min
Bit rate                                 : 54 b/s
Count of elements                        : 1687
Stream size                              : 54.3 KiB (0%)
Language                                 : Hungarian
Default                                  : No
Forced                                   : No

Subtitle #15
ID                                       : 18
Format                                   : UTF-8
Codec ID                                 : S_TEXT/UTF8
Codec ID/Info                            : UTF-8 Plain Text
Duration                                 : 2 h 16 min
Bit rate                                 : 108 b/s
Count of elements                        : 1971
Stream size                              : 108 KiB (0%)
Language                                 : Indonesian
Default                                  : No
Forced                                   : No

Subtitle #16
ID                                       : 19
Format                                   : UTF-8
Codec ID                                 : S_TEXT/UTF8
Codec ID/Info                            : UTF-8 Plain Text
Duration                                 : 2 h 15 min
Bit rate                                 : 55 b/s
Count of elements                        : 1504
Stream size                              : 54.7 KiB (0%)
Language                                 : Italian
Default                                  : No
Forced                                   : No

Subtitle #17
ID                                       : 20
Format                                   : UTF-8
Codec ID                                 : S_TEXT/UTF8
Codec ID/Info                            : UTF-8 Plain Text
Duration                                 : 2 h 4 min
Bit rate                                 : 55 b/s
Count of elements                        : 1720
Stream size                              : 50.5 KiB (0%)
Language                                 : Korean
Default                                  : No
Forced                                   : No

Subtitle #18
ID                                       : 21
Format                                   : UTF-8
Codec ID                                 : S_TEXT/UTF8
Codec ID/Info                            : UTF-8 Plain Text
Duration                                 : 2 h 15 min
Bit rate                                 : 44 b/s
Count of elements                        : 1486
Stream size                              : 43.8 KiB (0%)
Language                                 : Norwegian
Default                                  : No
Forced                                   : No

Subtitle #19
ID                                       : 22
Format                                   : UTF-8
Codec ID                                 : S_TEXT/UTF8
Codec ID/Info                            : UTF-8 Plain Text
Duration                                 : 2 h 15 min
Bit rate                                 : 46 b/s
Count of elements                        : 1440
Stream size                              : 45.9 KiB (0%)
Language                                 : Polish
Default                                  : No
Forced                                   : No

Subtitle #20
ID                                       : 23
Format                                   : UTF-8
Codec ID                                 : S_TEXT/UTF8
Codec ID/Info                            : UTF-8 Plain Text
Duration                                 : 2 h 15 min
Bit rate                                 : 54 b/s
Count of elements                        : 1654
Stream size                              : 54.0 KiB (0%)
Language                                 : Spanish
Default                                  : No
Forced                                   : No

Subtitle #21
ID                                       : 24
Format                                   : UTF-8
Codec ID                                 : S_TEXT/UTF8
Codec ID/Info                            : UTF-8 Plain Text
Duration                                 : 2 h 15 min
Bit rate                                 : 58 b/s
Count of elements                        : 1661
Stream size                              : 58.3 KiB (0%)
Language                                 : Turkish
Default                                  : No
Forced                                   : No

Subtitle #22
ID                                       : 25
Format                                   : UTF-8
Codec ID                                 : S_TEXT/UTF8
Codec ID/Info                            : UTF-8 Plain Text
Duration                                 : 2 h 16 min
Bit rate                                 : 70 b/s
Count of elements                        : 1982
Stream size                              : 70.2 KiB (0%)
Language                                 : Vietnamese
Default                                  : No
Forced                                   : No

Menu
00:00:00.000                             : en:Chapter 01
00:04:58.131                             : en:Chapter 02
00:13:43.489                             : en:Chapter 03
00:19:21.452                             : en:Chapter 04
00:26:45.979                             : en:Chapter 05
00:35:41.514                             : en:Chapter 06
00:40:13.244                             : en:Chapter 07
00:46:22.029                             : en:Chapter 08
00:51:34.216                             : en:Chapter 09
00:57:51.802                             : en:Chapter 10
01:01:53.251                             : en:Chapter 11
01:08:45.163                             : en:Chapter 12
01:14:22.833                             : en:Chapter 13
01:19:48.075                             : en:Chapter 14
01:24:59.261                             : en:Chapter 15
01:32:58.198                             : en:Chapter 16
01:38:48.923                             : en:Chapter 17
01:46:32.970                             : en:Chapter 18
01:53:29.594                             : en:Chapter 19
02:01:14.809                             : en:Chapter 20





Source Information

Code:
Release:
Fast.and.Furious.Presents.Hobbs.and.Shaw.2019.UHD.BluRay.2160p.TrueHD.Atmos.7.1.HEVC.REMUX-FraMeSToR.mkv (64.65 GBs)



Code:


Note From UTR
Whilst we are happy for our releases to be re-posted on a platform we aren't on, please do so in an 'as-is' format. We ask that you do not create a new torrent, include all descriptions you see above including the UTR logo, tags, notes and screenshots. If you'd like to become a permanent poster on a website we don't post to, feel free to get in contact with a UTR member.
If possible please donate for seedboxes.
BTC - 1QA5fum5AyXvWzdVCkQzUNvw3Ef15fHRaR
Monero - 8AuksPSzY7fen3HHT1a2342PgVy4J93MKfXG3AAcayV76miTyJ3sNfn38srwrpLirGfeR5DwhTL8GW8pdQgT7bZcJ25ynMx
Dash - Xh4mNs6uwZdpCEX2HSEVwGvPD7yKxZ1Ccd
Ethereum - 0x51c06c94e74c16735a7a6e841ad29fc90a84eb1f
Category:Movies > HEVC/x265
Lang:English  English
Total Size:1.99 GB
Info Hash:d8d14f8d84f2e99d6e6c4fcabd700b63c1260a30
Added By:FreeExchange
Date Added:04-11-2019 14:38:38

Files

File List: 
 File Size
Fast and Furious Presents- Hobbs and Shaw 2019 (1080p x265 q22 S75 Joy).mkv1.99 GB



Loading...
Comments

There are currently no comments. Be the first one to write something !

Disclaimer: None of the files shown here are actually hosted or transmitted by this server. The links are provided solely by this site's users. The site moderation is also a service provided by the site's users. The administrator of this site (ettv.tv) cannot be held responsible for what its users post, or any other actions of its users. You may not use this site to distribute or download any material when you do not have the legal rights to do so. It is your own responsibility to adhere to these terms.