arrow español better call saul xxx picard ddr joker 2019 chicago fire spies in disguise evo guns akimbo altered carbon s02 Chicago P.D. S07E15 The Gentlemen 2019 SEAL Team s03e11 brooklyn tommy s01e04 Altered Carbon S02E01 Star Wars The Rise of Skywalker 2019 Knives Out 2019 picard s01e06 etmovies The walking dead bad boys for life 2020 Fantasy Island 2020 the sinner greys anatomy S16E15 Star Trek Picard S01E06 Chicago Med S05E15 yts the call of the wild 2020 Wwe seal team rq.mp4 The Flash chicago fire s08e15 Young Sheldon clone wars Altered Carbon s02e06 Station 19 S03E06 Greys Anatomy birds of prey (and the fantabulous emancipation of one harley quinn) 2020 the sinner s03e04 hindi superman red son 2020 SEAL Team s03e12 Deputy S01E09 Hunters altered carbon Deputy drive to survive the invisible man 2020 Better Call Saul S05E02 chicago med Station 19 Parasite Brooklyn Nine Nine s07e05 frozen ii 2019 chicago pd etrg jumanji star wars ita star trek picard Brooklyn nine nine ettv 1917 2019 Sonic the Hedgehog 2020 ethd NCIS jumanji the next level 2019 
Warning! Use a V.P.N when Downloading Torrents!
Your IP Address is 3.233.217.91. Location is United States
Your Internet Provider is tracking your torrent activity! Hide your IP ADDRESS with a V.P.N!
We strongly recommend using ExpressVP-N to anonymize your torrenting. 30 Day Money Back Guarantee!
Try it Now!
ETTV Recommended TV Shows
Avenue.5.S01E07.720P.WEB.H264.INTERNAL-POKE[ettv] torrent
MacGyver.2016.S04E04.HDTV.x264-SVA[ettv] torrent
Charmed.2018.S02E14.HDTV.x264-SVA[ettv] torrent
The.Walking.Dead.S10E10.WEB.H264-XLF[ettv] torrent
Hawaii.Five-0.2010.S10E18.HDTV.x264-SVA[ettv] torrent
Strike.Back.S08E03.WEB.H264-XLF[ettv] torrent

ETTV Recommended SD
Deported.2020.HDRip.XviD.AC3-EVO torrent
Blood.On.Her.Name.2020.HDRip.XviD.AC3-EVO torrent
Guns.Akimbo.2019.HDRip.XViD.AC3-ETRG torrent
Spycies.2019.BRRip.XviD.AC3-EVO torrent

ETTV Recommended HD
Disappearance.At.Clifton.Hill.2020.1080p.WEB-DL.H264.AC3-EVO[EtHD] torrent
Blood.On.Her.Name.2020.1080p.WEB-DL.H264.AC3-EVO[EtHD] torrent
Guns.Akimbo.2019.1080p.WEB-DL.H264.AC3-EVO[EtHD] torrent
Charlies Angels 2019.MULTi.1080p.BluRay.DTS-X.7.1.HEVC-DDR.mkv torrent

ETTV Recommended UHD
A Beautiful Day in the Neighborhood 2019.MULTi.Bluray.2160p.HDR.DTS-HDMA.7.1.HEVC-DDR.mkv torrent
The Addams Family 2019.MULTi.UHD.Bluray.2160p.HDR.DTS-HDMA.5.1.HEVC-DDR.mkv torrent
Knives Out 2019.MULTi.UHD.BluRay.2160p.HDR.Atmos.7.1.HEVC-DDR.mkv torrent
Charlies.Angels.2019.MULTi.UHD.Bluray.2160p.HDR.DTS-X.7.1.HEVC-DDR.mkv torrent

ETTV Recommended Cam
Brahms The Boy 2 2020 HDCAM x264 -ETRG torrent
The Call of the Wild 2020 HDCAM NO ADS x264-ETRG torrent
The Invisible Man 2020 720p HDCAM-C1NEM4 torrent
Wendy 2020 720p HDCAM-C1NEM4 torrent

ETTV Recommended Foreign
Amit Tandon-Family Tandoncies.2020.1080p.NF.WEB-DL.DD+5.1.x264-Telly torrent
Charlies Angels (2019) 720p BluRay x264 [Dual-Audio][Hindi 5.1 - English 5.1] ESubs - Downloadhub torrent
Thappad (2020) Hindi 720p PreDVD x264 AAC 1.2GB CineVood Exclusive torrent
Betrayal (2013) 720p WEBRip x264 [Dual Audio] [Hindi DD 2.0 - English 5.1] Exclusive By -=!Dr.STAR!=- torrent


Download Torrent "Gemini Man (2019).SD.H264.ita.eng.Ac3-5.1.multisub-MIRCrew"

IMDB Details
Description:

An over-the-hill hitman faces off against a younger clone of himself.

Genre:

Action, Drama, Sci-Fi, Thriller

Download Torrent (Magnet)
Download Torrent (File)
Seeds: 6
Leechers: 0
Completed:
Last Checked: 03-01-2020 13:40:43


Loading...
Details
Title:Gemini Man (2019).SD.H264.ita.eng.Ac3-5.1.multisub-MIRCrew
Description:
Gemini Man (2019).SD.H264.ita.eng.Ac3-5.1.multisub-MIRCrew


NO FOUND ONLY ORIGINAL RELEASE

My release is always in double track audio italian and Original audio
for select it use VLC or dvd player home
not use wmp

Subtitle inside on this release
Italian, english, french, spanish, Portuguese

Gemini Man (2019)









Lingua originale    inglese
Paese di produzione    Stati Uniti d'America, Cina
Anno    2019
Durata    117 min
Rapporto    Widescreen
Genere    azione, fantascienza, drammatico
Regia    Ang Lee
Soggetto    storia di Darren Lemke e David Benioff
Sceneggiatura    Billy Ray, Darren Lemke, David Benioff



    Will Smith: Henry Brogen / Junior
    Mary Elizabeth Winstead: Danny Zakarewski
    Clive Owen: Clayton "Clay" Verris
    Benedict Wong: il barone
    Ralph Brown: Del Patterson
    Linda Emond: Janet Lassiter
    Douglas Hodge: Jack Willis
    E. J. Bonilla: Marino
    Ilia Volok: Yuri Kovacs
    Theodora Miranne: Kitty
    Tim Connolly: agente
    David Shae: messaggero in bicicletta
    Lilla Banak: madre di Henry
    Diego Adonye: padre di Henry
    Alexandra Szucs: Aniko



Henry Brogan è il miglior agente assassino del governo americano. Dopo una missione in Belgio, nella quale uccide un presunto terrorista, che successivamente scoprirà essere solo un biologo molecolare, decide di ritirarsi dal lavoro e tornare a casa sua in Georgia. Qualche notte dopo viene però raggiunto dagli asset del governo incaricati di ucciderlo



A retiring assassin, Henry Brogan, finds himself pursued by a mysterious killer that can predict his every move. Discovering that he's being hunted by a younger clone of himself, Henry needs to find out why he's being targeted and who the creator is

   







General

Complete name                            : Gemini Man (2019).SD.H264.ita.eng.multisub-MIRCrew-MIRCrew\Gemini Man (2019).SD.H264.ita.eng.multisub-MIRCrew-MIRCrew.mkv
Format                                   : Matroska
Format version                           : Version 2
File size                                : 1.71 GiB
Duration                                 : 1h 57mn
Overall bit rate                         : 2 089 Kbps
Encoded date                             : UTC 2020-01-03T12:36:20Z
Writing application                      : HandBrake 0.10.5 2016021100
Writing library                          : Lavf55.12.0

Video
ID                                       : 1
Format                                   : AVC
Format/Info                              : Advanced Video Codec
Format profile                           : [email protected]
Format settings, CABAC                   : Yes
Format settings, ReFrames                : 4 frames
Codec ID                                 : V_MPEG4/ISO/AVC
Duration                                 : 1h 57mn
Bit rate                                 : 1 300 Kbps
Width                                    : 720 pixels
Height                                   : 384 pixels
Display aspect ratio                     : 1.875
Frame rate                               : 23.976 fps
Color space                              : YUV
Chroma subsampling                       : 4:2:0
Bit depth                                : 8 bits
Scan type                                : Progressive
Bits/(Pixel*Frame)                       : 0.196
Stream size                              : 1.05 GiB (61%)
Writing library                          : x264 core 142 r2479 dd79a61
Encoding settings                        : cabac=1 / ref=1 / deblock=1:0:0 / analyse=0x1:0x111 / me=hex / subme=2 / psy=1 / psy_rd=1.00:0.00 / mixed_ref=0 / me_range=16 / chroma_me=1 / trellis=0 / 8x8dct=0 / cqm=0 / deadzone=21,11 / fast_pskip=1 / chroma_qp_offset=0 / threads=9 / lookahead_threads=3 / sliced_threads=0 / nr=0 / decimate=1 / interlaced=0 / bluray_compat=0 / constrained_intra=0 / bframes=3 / b_pyramid=2 / b_adapt=1 / b_bias=0 / direct=1 / weightb=1 / open_gop=0 / weightp=1 / keyint=240 / keyint_min=24 / scenecut=40 / intra_refresh=0 / rc_lookahead=10 / rc=abr / mbtree=1 / bitrate=1300 / ratetol=1.0 / qcomp=0.60 / qpmin=0 / qpmax=69 / qpstep=4 / vbv_maxrate=50000 / vbv_bufsize=62500 / nal_hrd=none / filler=0 / ip_ratio=1.40 / aq=1:1.00
Default                                  : Yes
Forced                                   : No
Color primaries                          : BT.709-5, BT.1361, IEC 61966-2-4, SMPTE RP177
Transfer characteristics                 : BT.709-5, BT.1361
Matrix coefficients                      : BT.709-5, BT.1361, IEC 61966-2-4 709, SMPTE RP177

Audio #1
ID                                       : 2
Format                                   : AC-3
Format/Info                              : Audio Coding 3
Mode extension                           : CM (complete main)
Codec ID                                 : A_AC3
Duration                                 : 1h 57mn
Bit rate mode                            : Constant
Bit rate                                 : 384 Kbps
Channel(s)                               : 6 channels
Channel positions                        : Front: L C R, Side: L R, LFE
Sampling rate                            : 48.0 KHz
Bit depth                                : 16 bits
Compression mode                         : Lossy
Delay relative to video                  : 1mn 5s
Stream size                              : 321 MiB (18%)
Title                                    : Surround
Language                                 : Italian
Default                                  : Yes
Forced                                   : No

Audio #2
ID                                       : 3
Format                                   : AC-3
Format/Info                              : Audio Coding 3
Mode extension                           : CM (complete main)
Codec ID                                 : A_AC3
Duration                                 : 1h 57mn
Bit rate mode                            : Constant
Bit rate                                 : 384 Kbps
Channel(s)                               : 6 channels
Channel positions                        : Front: L C R, Side: L R, LFE
Sampling rate                            : 48.0 KHz
Bit depth                                : 16 bits
Compression mode                         : Lossy
Delay relative to video                  : 1mn 5s
Stream size                              : 321 MiB (18%)
Title                                    : Surround
Language                                 : English
Default                                  : No
Forced                                   : No

Menu
00:00:00.000                             : :Capitolo 01
00:07:21.774                             : :Capitolo 02
00:15:31.805                             : :Capitolo 03
00:18:13.258                             : :Capitolo 04
00:24:39.644                             : :Capitolo 05
00:30:59.566                             : :Capitolo 06
00:34:09.547                             : :Capitolo 07
00:42:40.432                             : :Capitolo 08
00:50:25.063                             : :Capitolo 09
00:56:45.902                             : :Capitolo 10
01:03:30.431                             : :Capitolo 11
01:08:13.255                             : :Capitolo 12
01:16:46.059                             : :Capitolo 13
01:24:44.120                             : :Capitolo 14
01:30:04.857                             : :Capitolo 15
01:34:01.052                             : :Capitolo 16
01:42:14.586                             : :Capitolo 17
01:47:07.754                             : :Capitolo 18






Category:Movies > SD X264/H264
Lang:English  English
Total Size:1.71 GB
Info Hash:0f392a4cb2652441cb9c4af90bdc37241c66783d
Added By:robbyrs
Date Added:03-01-2020 13:40:29

Files

File List: 
 File Size
Gemini Man (2019).SD.H264.ita.eng.multisub-MIRCrew-MIRCrew.eng.srt90.02 kB
Gemini Man (2019).SD.H264.ita.eng.multisub-MIRCrew-MIRCrew.fre.srt93.96 kB
Gemini Man (2019).SD.H264.ita.eng.multisub-MIRCrew-MIRCrew.ita.srt89.23 kB
Gemini Man (2019).SD.H264.ita.eng.multisub-MIRCrew-MIRCrew.mkv1.71 GB
Gemini Man (2019).SD.H264.ita.eng.multisub-MIRCrew-MIRCrew.por.srt88.24 kB
Gemini Man (2019).SD.H264.ita.eng.multisub-MIRCrew-MIRCrew.spa.srt96.45 kB
Gemini Man (2019).SD.H264.ita.eng.multisub-MIRCrew-MIRCrew.srt452.00 B



Loading...
Comments

There are currently no comments. Be the first one to write something !

Disclaimer: None of the files shown here are actually hosted or transmitted by this server. The links are provided solely by this site's users. The site moderation is also a service provided by the site's users. The administrator of this site (ettv.tv) cannot be held responsible for what its users post, or any other actions of its users. You may not use this site to distribute or download any material when you do not have the legal rights to do so. It is your own responsibility to adhere to these terms.