arrow español better call saul xxx picard ddr joker 2019 chicago fire spies in disguise evo guns akimbo altered carbon s02 Chicago P.D. S07E15 The Gentlemen 2019 SEAL Team s03e11 brooklyn tommy s01e04 Altered Carbon S02E01 Star Wars The Rise of Skywalker 2019 Knives Out 2019 picard s01e06 etmovies The walking dead bad boys for life 2020 Fantasy Island 2020 the sinner greys anatomy S16E15 Star Trek Picard S01E06 Chicago Med S05E15 yts the call of the wild 2020 Wwe seal team rq.mp4 The Flash chicago fire s08e15 Young Sheldon clone wars Altered Carbon s02e06 Station 19 S03E06 Greys Anatomy birds of prey (and the fantabulous emancipation of one harley quinn) 2020 the sinner s03e04 hindi superman red son 2020 SEAL Team s03e12 Deputy S01E09 Hunters altered carbon Deputy drive to survive the invisible man 2020 Better Call Saul S05E02 chicago med Station 19 Parasite Brooklyn Nine Nine s07e05 frozen ii 2019 chicago pd etrg jumanji star wars ita star trek picard Brooklyn nine nine ettv 1917 2019 Sonic the Hedgehog 2020 ethd NCIS jumanji the next level 2019 
Warning! Use a V.P.N when Downloading Torrents!
Your IP Address is 3.233.217.91. Location is United States
Your Internet Provider is tracking your torrent activity! Hide your IP ADDRESS with a V.P.N!
We strongly recommend using ExpressVP-N to anonymize your torrenting. 30 Day Money Back Guarantee!
Try it Now!
ETTV Recommended TV Shows
Avenue.5.S01E07.720P.WEB.H264.INTERNAL-POKE[ettv] torrent
Gold.Rush.S10E20.WEBRip.x264-TBS[ettv] torrent
MacGyver.2016.S04E04.HDTV.x264-SVA[ettv] torrent
Charmed.2018.S02E14.HDTV.x264-SVA[ettv] torrent

ETTV Recommended SD
Deported.2020.HDRip.XviD.AC3-EVO torrent
Blood.On.Her.Name.2020.HDRip.XviD.AC3-EVO torrent
Guns.Akimbo.2019.HDRip.XViD.AC3-ETRG torrent
Spycies.2019.BRRip.XviD.AC3-EVO torrent

ETTV Recommended HD
Disappearance.At.Clifton.Hill.2020.1080p.WEB-DL.H264.AC3-EVO[EtHD] torrent
Blood.On.Her.Name.2020.1080p.WEB-DL.H264.AC3-EVO[EtHD] torrent
Guns.Akimbo.2019.1080p.WEB-DL.H264.AC3-EVO[EtHD] torrent
Charlies Angels 2019.MULTi.1080p.BluRay.DTS-X.7.1.HEVC-DDR.mkv torrent

ETTV Recommended UHD
A Beautiful Day in the Neighborhood 2019.MULTi.Bluray.2160p.HDR.DTS-HDMA.7.1.HEVC-DDR.mkv torrent
The Addams Family 2019.MULTi.UHD.Bluray.2160p.HDR.DTS-HDMA.5.1.HEVC-DDR.mkv torrent
Knives Out 2019.MULTi.UHD.BluRay.2160p.HDR.Atmos.7.1.HEVC-DDR.mkv torrent
Charlies.Angels.2019.MULTi.UHD.Bluray.2160p.HDR.DTS-X.7.1.HEVC-DDR.mkv torrent

ETTV Recommended Cam
Brahms The Boy 2 2020 HDCAM x264 -ETRG torrent
The Call of the Wild 2020 HDCAM NO ADS x264-ETRG torrent
The Invisible Man 2020 720p HDCAM-C1NEM4 torrent
Wendy 2020 720p HDCAM-C1NEM4 torrent

ETTV Recommended Foreign
Amit Tandon-Family Tandoncies.2020.1080p.NF.WEB-DL.DD+5.1.x264-Telly torrent
Charlies Angels (2019) 720p BluRay x264 [Dual-Audio][Hindi 5.1 - English 5.1] ESubs - Downloadhub torrent
Thappad (2020) Hindi 720p PreDVD x264 AAC 1.2GB CineVood Exclusive torrent
Betrayal (2013) 720p WEBRip x264 [Dual Audio] [Hindi DD 2.0 - English 5.1] Exclusive By -=!Dr.STAR!=- torrent


Download Torrent "The Purge S02 2019 720p AMZN WEBRip x264 Hindi English AAC 5.1 ESub - Movie..."

IMDB Details
Description:

N/A

Genre:

N/A

Download Torrent (Magnet)
Download Torrent (File)
Seeds: 161
Leechers: 156
Completed: 302 
Last Checked: 19-01-2020 04:36:32


Loading...
Details
Title:The Purge S02 2019 720p AMZN WEBRip x264 Hindi English AAC 5.1 ESub - Movie...
Description:
[size=29]www.MoviePirate.Site
[/size]

Telegram Link

****************************
_____ _ _ 
|_ _|___ | || | _ _ 
| | / _ \| || || | | |
| || __/| || || |_| |
|_| \___||_||_| \__, |
|___/ 
****************************
Team Telly Proudly Presents
****************************
------------------
|Media Info|
------------------
General
Unique ID                                : 204046259546498228401527757388584578139 (0x9981E150347A79BAFA39E4E4B64FEC5B)
Complete name                            : The Purge S02 2019 720p AMZN WEBRip x264 Hindi English AAC 5.1 ESub - MoviePirate - Telly\The Purge S02E01 720p AMZN WEBRip x264 Hindi English AAC 5.1 ESub - MoviePirate - Telly.mkv
Format                                   : Matroska
Format version                           : Version 4
File size                                : 402 MiB
Duration                                 : 42 min 7 s
Overall bit rate                         : 1 335 kb/s
Encoded date                             : UTC 2020-01-18 10:22:48
Writing application                      : mkvmerge v39.0.0 ('In The Waiting Line') 64-bit
Writing library                          : libebml v1.3.9 + libmatroska v1.5.2

Video
ID                                       : 1
Format                                   : AVC
Format/Info                              : Advanced Video Codec
Format profile                           : [email protected]
Format settings                          : CABAC / 4 Ref Frames
Format settings, CABAC                   : Yes
Format settings, Reference frames        : 4 frames
Codec ID                                 : V_MPEG4/ISO/AVC
Duration                                 : 42 min 7 s
Bit rate                                 : 1 000 kb/s
Width                                    : 1 280 pixels
Height                                   : 640 pixels
Display aspect ratio                     : 2.000
Frame rate mode                          : Constant
Frame rate                               : 23.976 (24000/1001) FPS
Color space                              : YUV
Chroma subsampling                       : 4:2:0
Bit depth                                : 8 bits
Scan type                                : Progressive
Bits/(Pixel*Frame)                       : 0.051
Stream size                              : 305 MiB (76%)
Writing library                          : x264 core 157 r2969 d4099dd
Encoding settings                        : cabac=1 / ref=2 / deblock=1:0:0 / analyse=0x3:0x113 / me=hex / subme=6 / psy=1 / psy_rd=1.00:0.00 / mixed_ref=1 / me_range=16 / chroma_me=1 / trellis=1 / 8x8dct=1 / cqm=0 / deadzone=21,11 / fast_pskip=1 / chroma_qp_offset=-2 / threads=20 / lookahead_threads=3 / sliced_threads=0 / nr=0 / decimate=1 / interlaced=0 / bluray_compat=0 / constrained_intra=0 / bframes=3 / b_pyramid=2 / b_adapt=1 / b_bias=0 / direct=1 / weightb=1 / open_gop=0 / weightp=1 / keyint=250 / keyint_min=23 / scenecut=40 / intra_refresh=0 / rc_lookahead=30 / rc=abr / mbtree=1 / bitrate=1000 / ratetol=1.0 / qcomp=0.60 / qpmin=0 / qpmax=69 / qpstep=4 / ip_ratio=1.40 / aq=1:1.00
Default                                  : Yes
Forced                                   : No
Color range                              : Limited
Color primaries                          : BT.709
Transfer characteristics                 : BT.709
Matrix coefficients                      : BT.709

Audio #1
ID                                       : 2
Format                                   : AAC LC SBR
Format/Info                              : Advanced Audio Codec Low Complexity with Spectral Band Replication
Commercial name                          : HE-AAC
Format settings                          : Explicit
Codec ID                                 : A_AAC-2
Duration                                 : 42 min 7 s
Bit rate                                 : 160 kb/s
Channel(s)                               : 6 channels
Channel layout                           : C L R Ls Rs LFE
Sampling rate                            : 48.0 kHz
Frame rate                               : 23.438 FPS (2048 SPF)
Compression mode                         : Lossy
Stream size                              : 48.2 MiB (12%)
Title                                    : English
Language                                 : English
Default                                  : No
Forced                                   : No

Audio #2
ID                                       : 3
Format                                   : AAC LC SBR
Format/Info                              : Advanced Audio Codec Low Complexity with Spectral Band Replication
Commercial name                          : HE-AAC
Format settings                          : Explicit
Codec ID                                 : A_AAC-2
Duration                                 : 42 min 7 s
Bit rate                                 : 160 kb/s
Channel(s)                               : 6 channels
Channel layout                           : C L R Ls Rs LFE
Sampling rate                            : 48.0 kHz
Frame rate                               : 23.438 FPS (2048 SPF)
Compression mode                         : Lossy
Stream size                              : 48.2 MiB (12%)
Title                                    : Hindi
Language                                 : Hindi
Default                                  : No
Forced                                   : No

Text
ID                                       : 4
Format                                   : UTF-8
Codec ID                                 : S_TEXT/UTF8
Codec ID/Info                            : UTF-8 Plain Text
Duration                                 : 41 min 39 s
Bit rate                                 : 51 b/s
Count of elements                        : 676
Stream size                              : 15.7 KiB (0%)
Title                                    : English [SDH]
Language                                 : English
Default                                  : No
Forced                                   : No

Menu
00:00:00.000                             : en:Scene 1
00:02:43.000                             : en:Title Sequence
00:03:01.000                             : en:Scene 3
00:14:48.000                             : en:Scene 4
00:28:43.000                             : en:Scene 5
00:41:46.000                             : en:End Credits
****************************
Telly.cc
Team Telly Official Site
****************************
[size=29]www.MoviePirate.Site[/size]
Enjoy Exclusives Content only on Telly.cc





Category:TV > TV Packs
Lang:Hindi  Hindi
Total Size:3.78 GB
Info Hash:d2039f932e308d2d879618964131a60b6c0c10ae
Added By:uploader6969
Date Added:19-01-2020 04:36:28

  

Files

File List: 
 File Size
The Purge S02E01 720p AMZN WEBRip x264 Hindi English AAC 5.1 ESub - MoviePirate - Telly.mkv402 MB
The Purge S02E02 720p AMZN WEBRip x264 Hindi English AAC 5.1 ESub - MoviePirate - Telly.mkv387 MB
The Purge S02E03 720p AMZN WEBRip x264 Hindi English AAC 5.1 ESub - MoviePirate - Telly.mkv386 MB
The Purge S02E04 720p AMZN WEBRip x264 Hindi English AAC 5.1 ESub - MoviePirate - Telly.mkv381 MB
The Purge S02E05 720p AMZN WEBRip x264 Hindi English AAC 5.1 ESub - MoviePirate - Telly.mkv390 MB
The Purge S02E06 720p AMZN WEBRip x264 Hindi English AAC 5.1 ESub - MoviePirate - Telly.mkv386 MB
The Purge S02E07 720p AMZN WEBRip x264 Hindi English AAC 5.1 ESub - MoviePirate - Telly.mkv382 MB
The Purge S02E08 720p AMZN WEBRip x264 Hindi English AAC 5.1 ESub - MoviePirate - Telly.mkv384 MB
The Purge S02E09 720p AMZN WEBRip x264 Hindi English AAC 5.1 ESub - MoviePirate - Telly.mkv388 MB
The Purge S02E10 720p AMZN WEBRip x264 Hindi English AAC 5.1 ESub - MoviePirate - Telly.mkv384 MB



Loading...
Comments

There are currently no comments. Be the first one to write something !

Disclaimer: None of the files shown here are actually hosted or transmitted by this server. The links are provided solely by this site's users. The site moderation is also a service provided by the site's users. The administrator of this site (ettv.tv) cannot be held responsible for what its users post, or any other actions of its users. You may not use this site to distribute or download any material when you do not have the legal rights to do so. It is your own responsibility to adhere to these terms.