Supergirl S05E17 the banker 2020 Contagion 2011 etmovies picard the invisible man 2020 The Gentlemen 2020 God Friended Me S02E18 The Walking Dead S10E14 Jumanji The Next Level 2019 ethd NCIS New Orleans S06E18 ncis BETTER CALL SAUL bad boys for life Greys Anatomy The Walking Dead  a quiet place part ii 2020 Ozark s03e03 Westworld s03e02 homeland s08e08 tiger king 1917 2019 star wars the rise of skywalker 2019 xxx Vivarium 2020 American Idol S18E09 Spenser Confidential 2020 outlander Ozark s03e01 Underwater 2020 ettv Westworld s03e03 720p Bloodshot 2020 The Call of the Wild 2020 Tiger King Murder, Mayhem and Madness S01E01 hindi Star Trek Picard S01E10 Last Week Tonight with John Oliver S07E06 evo yts batwoman Better Call Saul S05E07 Bad Boys for Life 2020 Ozark S03E05 rq.mp4 Bloodshot ddr etrg Onward 2020 Knives Out 2019 Birds of Prey (and the Fantabulous Emancipation of One Harley Quinn) 2020 frozen ii 2019 The Platform 2019 The Way Back 2020 Fantasy Island 2020 westworld s03e03 homeland supergirl Westworld The Blacklist S07E12 Ozark s03e04 outlander s05e07 The Gentlemen 2019 good girls s03e07 ozark The Hunt 2020 NCIS Los Angeles s11e19 sonic the hedgehog 2020 Ozark s03e02 the real housewives of atlanta s12e20 dolittle 2020 
Warning! Use a V.P.N when Downloading Torrents!
Your IP Address is 3.235.66.217. Location is United States
Your Internet Provider is tracking your torrent activity! Hide your IP ADDRESS with a V.P.N!
We strongly recommend using ExpressVP-N to anonymize your torrenting. 30 Day Money Back Guarantee!
Try it Now!
ETTV Recommended TV Shows
9-1-1.S03E13.WEB.H264-iNSiDiOUS[ettv] torrent
Prodigal.Son.S01E18.WEBRip.x264-XLF[ettv] torrent
The.Plot.Against.America.S01E03.WEBRip.x264-XLF[ettv] torrent
Manifest.S02E12.HDTV.x264-SVA[ettv] torrent

ETTV Recommended SD
Escape from Pretoria.2020.BRRip.XviD-ETRG torrent
Bad.Boys.for.Life.2020..AMZN.HDRip.XViD-ETRG torrent
Sonic.the.Hedgehog.2020.AMZN.HDRip.XViD-ETRG torrent
Light.From.Light.2019.HDRip.XViD-ETRG torrent

ETTV Recommended HD
Bad Boys for Life.2020.1080p.WEB-DL.H264.AC3-EVO[EtHD] torrent
Escape.from.Pretoria.2020.LIMITED.1080p.BluRay.x264-DRONES[EtHD] torrent
Sonic.the.Hedgehog.2020.1080p.AMZN.WEB-DL.DDP5.1.H.264-TEPES[EtHD] torrent
Locusts.2019.1080p.WEB-DL.H264.AC3-EVO[EtHD] torrent

ETTV Recommended UHD
Star.Wars.Episode.III.Revenge.of.the.Sith.2005.MULTi.UHD.2160p.HDR.Atmos.7.1.HEVC-DDR.mkv torrent
Bloodshot.2020.2160p.HDR.WEB-Rip.DDP5.1.HEVC-DDR.mkv torrent
Onward.2020.2160p.HDR.WEB-Rip.DD5.1.HEVC-DDR.mkv torrent
Black And Blue 2020.MULTi.UHD.2160p.HDR.DTS-HDMA..5.1.HEVC-DDR.mkv torrent

ETTV Recommended Cam
My Spy 2020 HDCAM x264 AC3-ETRG torrent
The Hunt 2020 HDCAM x264 AC3-ETRG torrent
The Burnt Orange Heresy 2020 720p HDCAM-C1NEM4 torrent
Fantasy Island 2020 UNRATED HDTS XViD AC3-ETRG torrent

ETTV Recommended Foreign
Bloodshot (2020) ITA-ENG Ac3 5.1 WEBRip 1080p H264 [ArMor] torrent
The Black Hole (2006) 720p WEBRip x264 Eng Subs [Dual Audio] [Hindi DD 2.0 - English 2.0] Exclusive By -=!Dr.STAR!=- torrent
Justin and the Knights of Valour (2013) 720p BluRay x264 Eng Subs [Dual Audio] [Hindi DD 2.0 - English 2.0] Exclusive By -=!Dr.STAR!=- torrent
Cut (2000) 720p BluRay x264 Eng Subs [Dual Audio] [Hindi DD 2.0 - English 2.0] Exclusive By -=!Dr.STAR!=- torrent


Download Torrent " Vikings S06E08 Valhalla Can Wait 1080p AMZN WEBrip x265 DDP5.1 D0ct0rLew[S..."

IMDB Details
Description:

Vikings transports us to the brutal and mysterious world of Ragnar Lothbrok, a Viking warrior and farmer who yearns to explore - and raid - the distant shores across the ocean.

Genre:

Action, Adventure, Drama

Download Torrent (Magnet)
Seeds: 323
Leechers: 117
Completed: 1,390 
Last Checked: 24-01-2020 20:13:56


Details
Title: Vikings S06E08 Valhalla Can Wait 1080p AMZN WEBrip x265 DDP5.1 D0ct0rLew[S...
Description:






Media Information

Unique ID                                : 106250102441558771790191269391249713929 (0x4FEF067FDEB686B47C2AD66D9A502B09)
Complete name                            : Vikings S06E08 Valhalla Can Wait 1080p AMZN WEBrip x265 DDP5.1 D0ct0rLew[SEV].mkv
Format                                   : Matroska
Format version                           : Version 4
File size                                : 1.22 GiB
Duration                                 : 45 min 31 s
Overall bit rate                         : 3 823 kb/s
Movie name                               : Vikings S06E08 Valhalla Can Wait 1080p AMZN WEBrip x265 DDP5.1 D0ct0rLew[SEV]
Encoded date                             : UTC 2020-01-24 19:23:07
Writing application                      : mkvmerge v37.0.0 ('Leave It') 64-bit
Writing library                          : libebml v1.3.9 + libmatroska v1.5.2

Video
ID                                       : 1
Format                                   : HEVC
Format/Info                              : High Efficiency Video Coding
Format profile                           : Main [email protected]@Main
Codec ID                                 : V_MPEGH/ISO/HEVC
Duration                                 : 45 min 31 s
Bit rate                                 : 3 181 kb/s
Width                                    : 1 920 pixels
Height                                   : 1 080 pixels
Display aspect ratio                     : 16:9
Frame rate mode                          : Constant
Frame rate                               : 23.976 (24000/1001) FPS
Color space                              : YUV
Chroma subsampling                       : 4:2:0
Bit depth                                : 10 bits
Bits/(Pixel*Frame)                       : 0.064
Stream size                              : 1.01 GiB (83%)
Writing library                          : x265 3.2+9-971180b100f8:[Windows][MSVC 1923][64 bit] 10bit
Encoding settings                        : cpuid=1111039 / frame-threads=3 / numa-pools=8 / wpp / no-pmode / no-pme / no-psnr / no-ssim / log-level=2 / input-csp=1 / input-res=1920x1080 / interlace=0 / total-frames=65490 / level-idc=0 / high-tier=1 / uhd-bd=0 / ref=4 / no-allow-non-conformance / no-repeat-headers / annexb / no-aud / no-hrd / info / hash=0 / no-temporal-layers / open-gop / min-keyint=23 / keyint=250 / gop-lookahead=0 / bframes=16 / b-adapt=2 / b-pyramid / bframe-bias=0 / rc-lookahead=90 / lookahead-slices=4 / scenecut=40 / radl=0 / no-splice / no-intra-refresh / ctu=64 / min-cu-size=8 / no-rect / no-amp / max-tu-size=32 / tu-inter-depth=4 / tu-intra-depth=4 / limit-tu=0 / rdoq-level=2 / dynamic-rd=0.00 / no-ssim-rd / signhide / no-tskip / nr-intra=0 / nr-inter=0 / no-constrained-intra / no-strong-intra-smoothing / max-merge=3 / limit-refs=3 / limit-modes / me=3 / subme=7 / merange=92 / temporal-mvp / no-frame-dup / no-hme / weightp / no-weightb / no-analyze-src-pics / deblock=0:0 / sao / no-sao-non-deblock / rd=4 / selective-sao=4 / no-early-skip / rskip / no-fast-intra / no-tskip-fast / no-cu-lossless / no-b-intra / no-splitrd-skip / rdpenalty=0 / psy-rd=1.20 / psy-rdoq=1.00 / no-rd-refine / no-lossless / cbqpoffs=0 / crqpoffs=0 / rc=crf / crf=19.8 / qcomp=0.60 / qpstep=4 / stats-write=0 / stats-read=0 / ipratio=1.40 / pbratio=1.30 / aq-mode=3 / aq-strength=1.00 / cutree / zone-count=0 / no-strict-cbr / qg-size=32 / no-rc-grain / qpmax=69 / qpmin=0 / no-const-vbv / sar=0 / overscan=0 / videoformat=5 / range=0 / colorprim=2 / transfer=2 / colormatrix=2 / chromaloc=0 / display-window=0 / cll=0,0 / min-luma=0 / max-luma=1023 / log2-max-poc-lsb=8 / vui-timing-info / vui-hrd-info / slices=1 / no-opt-qp-pps / no-opt-ref-list-length-pps / no-multi-pass-opt-rps / scenecut-bias=0.05 / no-opt-cu-delta-qp / no-aq-motion / no-hdr / no-hdr-opt / no-dhdr10-opt / no-idr-recovery-sei / analysis-reuse-level=5 / scale-factor=0 / refine-intra=0 / refine-inter=0 / refine-mv=1 / refine-ctu-distortion=0 / no-limit-sao / ctu-info=0 / no-lowpass-dct / refine-analysis-type=0 / copy-pic=1 / max-ausize-factor=1.0 / no-dynamic-refine / no-single-sei / no-hevc-aq / no-svt / no-field / qp-adaptation-range=1.00
Default                                  : Yes
Forced                                   : No

Audio
ID                                       : 2
Format                                   : E-AC-3
Format/Info                              : Enhanced AC-3
Commercial name                          : Dolby Digital Plus
Codec ID                                 : A_EAC3
Duration                                 : 45 min 31 s
Bit rate mode                            : Constant
Bit rate                                 : 640 kb/s
Channel(s)                               : 6 channels
Channel layout                           : L R C LFE Ls Rs
Sampling rate                            : 48.0 kHz
Frame rate                               : 31.250 FPS (1536 SPF)
Compression mode                         : Lossy
Stream size                              : 208 MiB (17%)
Language                                 : English
Service kind                             : Complete Main
Default                                  : Yes
Forced                                   : No

Text
ID                                       : 3
Format                                   : UTF-8
Codec ID                                 : S_TEXT/UTF8
Codec ID/Info                            : UTF-8 Plain Text
Duration                                 : 44 min 31 s
Bit rate                                 : 44 b/s
Count of elements                        : 543
Stream size                              : 14.7 KiB (0%)
Title                                    : SDH
Language                                 : English
Default                                  : No
Forced                                   : No

We have no issue with individuals posting or re-uploading our torrents on a platform we aren't on. However, if this is something you'd like to do, please do so in a 'as-is' format. We ask that you do not create a new torrent, include all descriptions you see above including the SEV logo, tags, notes and screenshots.
If you'd like to become a permanent poster on a website we don't post to, feel free to get in contact with a Sublime Encoded Video member.

We are recruiting/training new members for SEV & seedbox providers as well as people to help out with subtitles.
As you already know, we deliver quality, so you know the standard.
If you're interested, feel free to contact any of the team members.

Category:TV > HEVC/x265
Lang:English  English
Total Size:1.22 GB
Info Hash:7250b55123e9464505200d95eea920988342d570
Added By:D0ct0rLew
Date Added:24-01-2020 20:13:54

  

Files

File List: 
 File Size
Vikings S06E08 Valhalla Can Wait 1080p AMZN WEBrip x265 DDP5.1 D0ct0rLew[SEV].mkv1.22 GB



Comments

There are currently no comments. Be the first one to write something !

Disclaimer: None of the files shown here are actually hosted or transmitted by this server. The links are provided solely by this site's users. The site moderation is also a service provided by the site's users. The administrator of this site (ettv.tv) cannot be held responsible for what its users post, or any other actions of its users. You may not use this site to distribute or download any material when you do not have the legal rights to do so. It is your own responsibility to adhere to these terms.