italian The Orville hindi game of thrones young sheldon S02E13 big bang theory The punisher s02 gotham bohemian rhapsody ita split The Good Place s03e12 great british bake off s09e10 2018 ita the big bang theory S12E13 the punisher the good place fgt star trek star trek discovery s02e01 star trek discovery s02 The flash bumblebee tushy 18.12 1080p.mp4-ktr the big bang theory brooklyn nine nine s06e02 tushyraw 1080p.mp4-ktr supernatural ita complete season anal Venom Modern Family evo lesbian ncis Xxx GREYS ANATOMY DTONE etmovies bohemian rhapsody ıt 2017 ethd EtHD the grand tour the orville s02e04 etrg true detective gotham s05e03 mom ddr aquaman you star trek discovery español star trek discovery 1080P 2160p a star is born Young sheldon Supernatural S14E10 windows 10 it brooklyn nine nine ettv punisher AQUAMAN ita dtone arrow arrow español orville vikings S05E18 vikings 
Warning! Use a VPN When Downloading Torrents!
Your IP Address is 18.212.92.235. Location is United States
Your Internet Provider is tracking your torrent activity! Hide your IP ADDRESS with a VPN!
We strongly recommend using NordVPN to anonymize your torrenting. 30 Day Money Back Guarantee!
Try it Now!
ETTV Recommended TV Shows
Marvels.The.Punisher.S02.WEB.x264-STRiFE[ettv] torrent
The.Blacklist.S06E04.HDTV.x264-BATV[ettv] torrent
Blindspot.S04E10.HDTV.x264-SVA[ettv] torrent
MacGyver.2016.S03E13.HDTV.x264-SVA[ettv] torrent

ETTV Recommended SD
Deadly.Switch.2019.HDRip.XViD-ETRG torrent
Close.2019.HDRip.XViD-ETRG torrent
IO.2019.HDRip.XViD-ETRG torrent
Bumblebee.2018.V2.HC.HDRip.XviD.AC3-EVO[EtMovies] torrent

ETTV Recommended HD
The Little Stranger 2018.MULTi.1080p.Blu-ray.HEVC.DTS-HD.MA.5.1-DTOne torrent
Madeline\'s Madeline 2018.BluRay.1080p.HEVC.DTS-HD.MA5.1-DTOne torrent
King.of.Thieves.2018.1080p.BluRay.X264-AMIABLE[EtHD] torrent
Bumblebee.2018.V2.1080p.HC.HDRip.X264-EVO[EtHD] torrent

ETTV Recommended UHD
Superfly.2018.MULTI.2160p.UHDRip.x265.HDR.DTS-HD.MA.5.1-DTOne torrent
Star.Trek.Into.Darkness.2013.Multi.2160p.UHD.Bluray.x265.HDR.Atmos.7.1.[En+Hi+]-DTOne torrent
Johnny English Strikes Again 2018.UHD.2160p.Blu-ray.x265.DTS-HD.MA.7.1-DTOne torrent
The Hate U Give 2018.Multi.UHD.BluRay.2160p.x265.DTS-HD.MA.7.1-DTOne torrent

ETTV Recommended Cam
How to Train Your Dragon 3 2019 HDCAM XViD AC3-ETRG torrent
Mary Poppins Returns 2018 NEW HDTS x264 AC3-ETRG torrent
Second Act 2018 HDCAM x264 AC3-ETRG torrent
Glass 2019.HDCAM.XViD.AC3-ETRG torrent

ETTV Recommended Foreign
Zimna wojna 2018.Multi.1080p.Blu-ray.HEVC.DTS-PCM+DTS.5.1-DTOne torrent
URI - The Surgical Strike (2019) 1CD PDvD Rip x264 AAC-DTOne torrent
Big Brother 2018 BluRay 1080p AAC x264-MPAD[EtHD] torrent
The Hurricane Heist (2018) 720p BluRay x264 Eng Subs [Dual Audio] [Hindi DD 2.0 - English 2.0] Exclusive By -=!Dr.STAR!=- torrent


Download Torrent "Dragon Ball Z Dead Zone (1989) 1080p BDRip x265 FLAC 5.1 Goki [SEV]"

IMDB Details
Description:

In order to wish for immortality and avenge his father, Garlic Jr. collects the dragon balls, kidnapping Goku's son Gohan in the process. Goku, Kami, Piccolo, and Krillin unite to rescue ...

Genre:

Animation, Short, Action

Download Torrent (Magnet)
Download Torrent (File)
Seeds: 26
Leechers: 42
Completed: 186 
Last Checked: 29-12-2018 06:17:25


Details
Title:Dragon Ball Z Dead Zone (1989) 1080p BDRip x265 FLAC 5.1 Goki [SEV]
Description:




Screenshots
Source



Encode




Media Information

Unique ID                                : 283954956686944662339396729139282177204 (0xD59FBC42C8EF53E21AB4A4D39621ECB4)
Complete name                            : Dragon Ball Z Dead Zone (1989) 1080p BDRip x265 FLAC 5.1 Goki [SEV].mkv
Format                                   : Matroska
Format version                           : Version 4
File size                                : 4.16 GiB
Duration                                 : 41 min 13 s
Overall bit rate mode                    : Variable
Overall bit rate                         : 14.4 Mb/s
Movie name                               : Dragon Ball Z Dead Zone (1989) 1080p BDRip x265 FLAC 5.1 Goki [SEV]
Encoded date                             : UTC 2018-12-28 05:09:41
Writing application                      : mkvmerge v28.2.0 ('The Awakening') 64-bit
Writing library                          : libebml v1.3.6 + libmatroska v1.4.9

Video
ID                                       : 1
Format                                   : HEVC
Format/Info                              : High Efficiency Video Coding
Format profile                           : Main [email protected]@Main
Codec ID                                 : V_MPEGH/ISO/HEVC
Duration                                 : 41 min 13 s
Bit rate                                 : 12.2 Mb/s
Width                                    : 1 920 pixels
Height                                   : 1 080 pixels
Display aspect ratio                     : 16:9
Frame rate mode                          : Constant
Frame rate                               : 23.976 (24000/1001) FPS
Color space                              : YUV
Chroma subsampling                       : 4:2:0
Bit depth                                : 10 bits
Bits/(Pixel*Frame)                       : 0.245
Stream size                              : 3.51 GiB (84%)
Writing library                          : x265 2.9+8-27d8424c799d:[Windows][MSVC 1915][64 bit] 10bit
Encoding settings                        : cpuid=1111039 / frame-threads=2 / numa-pools=4 / wpp / no-pmode / no-pme / no-psnr / no-ssim / log-level=2 / input-csp=1 / input-res=1920x1080 / interlace=0 / total-frames=0 / level-idc=0 / high-tier=1 / uhd-bd=0 / ref=4 / no-allow-non-conformance / no-repeat-headers / annexb / no-aud / no-hrd / info / hash=0 / no-temporal-layers / open-gop / min-keyint=23 / keyint=250 / gop-lookahead=0 / bframes=8 / b-adapt=2 / b-pyramid / bframe-bias=0 / rc-lookahead=100 / lookahead-slices=4 / scenecut=40 / radl=0 / no-intra-refresh / ctu=64 / min-cu-size=8 / no-rect / no-amp / max-tu-size=32 / tu-inter-depth=2 / tu-intra-depth=2 / limit-tu=4 / rdoq-level=2 / dynamic-rd=0.00 / no-ssim-rd / signhide / no-tskip / nr-intra=0 / nr-inter=0 / no-constrained-intra / no-strong-intra-smoothing / max-merge=3 / limit-refs=2 / limit-modes / me=3 / subme=5 / merange=57 / temporal-mvp / weightp / weightb / no-analyze-src-pics / deblock=0:0 / sao / no-sao-non-deblock / rd=6 / no-early-skip / rskip / no-fast-intra / no-tskip-fast / no-cu-lossless / b-intra / no-splitrd-skip / rdpenalty=0 / psy-rd=1.50 / psy-rdoq=2.00 / no-rd-refine / no-lossless / cbqpoffs=0 / crqpoffs=0 / rc=crf / crf=17.4 / qcomp=0.60 / qpstep=4 / stats-write=0 / stats-read=0 / ipratio=1.40 / pbratio=1.30 / aq-mode=2 / aq-strength=1.10 / cutree / zone-count=0 / no-strict-cbr / qg-size=32 / no-rc-grain / qpmax=69 / qpmin=0 / no-const-vbv / sar=1 / overscan=0 / videoformat=5 / range=0 / colorprim=2 / transfer=2 / colormatrix=2 / chromaloc=0 / display-window=0 / max-cll=0,0 / min-luma=0 / max-luma=1023 / log2-max-poc-lsb=8 / vui-timing-info / vui-hrd-info / slices=1 / no-opt-qp-pps / no-opt-ref-list-length-pps / no-multi-pass-opt-rps / scenecut-bias=0.05 / no-opt-cu-delta-qp / no-aq-motion / no-hdr / no-hdr-opt / no-dhdr10-opt / no-idr-recovery-sei / analysis-reuse-level=5 / scale-factor=0 / refine-intra=0 / refine-inter=0 / refine-mv=0 / no-limit-sao / ctu-info=0 / no-lowpass-dct / refine-mv-type=0 / copy-pic=1 / max-ausize-factor=1.0 / no-dynamic-refine / no-single-sei
Language                                 : English
Default                                  : Yes
Forced                                   : No

Audio #1
ID                                       : 2
Format                                   : FLAC
Format/Info                              : Free Lossless Audio Codec
Codec ID                                 : A_FLAC
Duration                                 : 41 min 13 s
Bit rate mode                            : Variable
Bit rate                                 : 1 585 kb/s
Channel(s)                               : 6 channels
Channel layout                           : L R C LFE Ls Rs
Sampling rate                            : 48.0 kHz
Frame rate                               : 10.417 FPS (4608 SPF)
Bit depth                                : 24 bits
Compression mode                         : Lossless
Stream size                              : 467 MiB (11%)
Title                                    : English 5.1 FLAC
Writing library                          : MakeMKV v1.14.2 win(x64-release)
Language                                 : English
Default                                  : Yes
Forced                                   : No

Audio #2
ID                                       : 3
Format                                   : AC-3
Format/Info                              : Audio Coding 3
Commercial name                          : Dolby Digital
Codec ID                                 : A_AC3
Duration                                 : 41 min 13 s
Bit rate mode                            : Constant
Bit rate                                 : 640 kb/s
Channel(s)                               : 1 channel
Channel layout                           : C
Sampling rate                            : 48.0 kHz
Frame rate                               : 31.250 FPS (1536 SPF)
Bit depth                                : 16 bits
Compression mode                         : Lossy
Stream size                              : 189 MiB (4%)
Title                                    : Japanese Mono AC3
Language                                 : Japanese
Service kind                             : Complete Main
Default                                  : No
Forced                                   : No

Text #1
ID                                       : 4
Format                                   : UTF-8
Codec ID                                 : S_TEXT/UTF8
Codec ID/Info                            : UTF-8 Plain Text
Bit rate                                 : 0 b/s
Count of elements                        : 0
Stream size                              : 0.00 Byte (0%)
Title                                    : Blank
Language                                 : English
Default                                  : Yes
Forced                                   : No

Text #2
ID                                       : 5
Format                                   : PGS
Codec ID                                 : S_HDMV/PGS
Codec ID/Info                            : Picture based subtitle format used on BDs/HD-DVDs
Duration                                 : 1 min 16 s
Bit rate                                 : 36.1 kb/s
Count of elements                        : 24
Stream size                              : 338 KiB (0%)
Title                                    : English PGS
Language                                 : English
Default                                  : No
Forced                                   : No

Text #3
ID                                       : 6
Format                                   : PGS
Codec ID                                 : S_HDMV/PGS
Codec ID/Info                            : Picture based subtitle format used on BDs/HD-DVDs
Duration                                 : 40 min 26 s
Bit rate                                 : 20.6 kb/s
Count of elements                        : 513
Stream size                              : 5.96 MiB (0%)
Title                                    : Japanese PGS
Language                                 : Japanese
Default                                  : No
Forced                                   : No

Menu
00:00:00.000                             : en:Chapter 01
00:01:42.769                             : en:Chapter 02
00:03:30.877                             : en:Chapter 03
00:07:09.220                             : en:Chapter 04
00:12:34.962                             : en:Chapter 05
00:18:08.545                             : en:Chapter 06
00:22:04.906                             : en:Chapter 07
00:26:35.427                             : en:Chapter 08
00:30:03.510                             : en:Chapter 09
00:33:46.733                             : en:Chapter 10
00:37:25.284                             : en:Chapter 11
00:39:36.290                             : en:Chapter 12








Source Media Information

Unique ID                                : 176710048688181444136286558242438202133 (0x84F11E0F8455457FB8E07E2D679D4315)
Complete name                            : Dragon Ball Z Movies 1 - 2_t03.mkv
Format                                   : Matroska
Format version                           : Version 2
File size                                : 8.02 GiB
Duration                                 : 41 min 13 s
Overall bit rate mode                    : Variable
Overall bit rate                         : 27.8 Mb/s
Movie name                               : Dragon Ball Z Movies 1 - 2
Encoded date                             : UTC 2018-12-26 10:05:55
Writing application                      : MakeMKV v1.14.2 win(x64-release)
Writing library                          : libmakemkv v1.14.2 (1.3.5/1.4.7) win(x64-release)

Video
ID                                       : 1
ID in the original source medium         : 4113 (0x1011)
Format                                   : AVC
Format/Info                              : Advanced Video Codec
Format profile                           : [email protected]
Format settings                          : CABAC / 4 Ref Frames
Format settings, CABAC                   : Yes
Format settings, RefFrames               : 4 frames
Codec ID                                 : V_MPEG4/ISO/AVC
Duration                                 : 41 min 13 s
Bit rate mode                            : Variable
Bit rate                                 : 22.0 Mb/s
Maximum bit rate                         : 37.0 Mb/s
Width                                    : 1 920 pixels
Height                                   : 1 080 pixels
Display aspect ratio                     : 16:9
Frame rate mode                          : Constant
Frame rate                               : 23.976 (24000/1001) FPS
Standard                                 : NTSC
Color space                              : YUV
Chroma subsampling                       : 4:2:0
Bit depth                                : 8 bits
Scan type                                : Progressive
Bits/(Pixel*Frame)                       : 0.442
Stream size                              : 6.33 GiB (79%)
Language                                 : English
Default                                  : No
Forced                                   : No
Color range                              : Limited
Color primaries                          : BT.709
Transfer characteristics                 : BT.709
Matrix coefficients                      : BT.709
Original source medium                   : Blu-ray

Audio #1
ID                                       : 2
ID in the original source medium         : 4352 (0x1100)
Format                                   : MLP FBA
Format/Info                              : Meridian Lossless Packing FBA
Commercial name                          : Dolby TrueHD
Codec ID                                 : A_TRUEHD
Duration                                 : 41 min 13 s
Bit rate mode                            : Variable
Bit rate                                 : 1 548 kb/s
Maximum bit rate                         : 2 376 kb/s
Channel(s)                               : 6 channels
Channel layout                           : L R C LFE Ls Rs
Sampling rate                            : 48.0 kHz
Frame rate                               : 1 200.000 FPS (40 SPF)
Bit depth                                : 24 bits
Compression mode                         : Lossless
Stream size                              : 456 MiB (6%)
Title                                    : Surround 5.1
Language                                 : English
Default                                  : Yes
Forced                                   : No
Original source medium                   : Blu-ray

Audio #2
ID                                       : 3
ID in the original source medium         : 4352 (0x1100)
Format                                   : AC-3
Format/Info                              : Audio Coding 3
Commercial name                          : Dolby Digital
Codec ID                                 : A_AC3
Duration                                 : 41 min 13 s
Bit rate mode                            : Constant
Bit rate                                 : 640 kb/s
Channel(s)                               : 6 channels
Channel layout                           : L R C LFE Ls Rs
Sampling rate                            : 48.0 kHz
Frame rate                               : 31.250 FPS (1536 SPF)
Bit depth                                : 16 bits
Compression mode                         : Lossy
Stream size                              : 189 MiB (2%)
Title                                    : Surround 5.1
Language                                 : English
Service kind                             : Complete Main
Default                                  : No
Forced                                   : No
Original source medium                   : Blu-ray

Audio #3
ID                                       : 4
ID in the original source medium         : 4353 (0x1101)
Format                                   : MLP FBA
Format/Info                              : Meridian Lossless Packing FBA
Commercial name                          : Dolby TrueHD
Codec ID                                 : A_TRUEHD
Duration                                 : 41 min 13 s
Bit rate mode                            : Variable
Bit rate                                 : 1 700 kb/s
Maximum bit rate                         : 2 574 kb/s
Channel(s)                               : 6 channels
Channel layout                           : L R C LFE Ls Rs
Sampling rate                            : 48.0 kHz
Frame rate                               : 1 200.000 FPS (40 SPF)
Bit depth                                : 24 bits
Compression mode                         : Lossless
Stream size                              : 501 MiB (6%)
Title                                    : Surround 5.1
Language                                 : English
Default                                  : No
Forced                                   : No
Original source medium                   : Blu-ray

Audio #4
ID                                       : 5
ID in the original source medium         : 4353 (0x1101)
Format                                   : AC-3
Format/Info                              : Audio Coding 3
Commercial name                          : Dolby Digital
Codec ID                                 : A_AC3
Duration                                 : 41 min 13 s
Bit rate mode                            : Constant
Bit rate                                 : 640 kb/s
Channel(s)                               : 6 channels
Channel layout                           : L R C LFE Ls Rs
Sampling rate                            : 48.0 kHz
Frame rate                               : 31.250 FPS (1536 SPF)
Bit depth                                : 16 bits
Compression mode                         : Lossy
Stream size                              : 189 MiB (2%)
Title                                    : Surround 5.1
Language                                 : English
Service kind                             : Complete Main
Default                                  : No
Forced                                   : No
Original source medium                   : Blu-ray

Audio #5
ID                                       : 6
ID in the original source medium         : 4354 (0x1102)
Format                                   : AC-3
Format/Info                              : Audio Coding 3
Commercial name                          : Dolby Digital
Codec ID                                 : A_AC3
Duration                                 : 41 min 13 s
Bit rate mode                            : Constant
Bit rate                                 : 640 kb/s
Channel(s)                               : 1 channel
Channel layout                           : C
Sampling rate                            : 48.0 kHz
Frame rate                               : 31.250 FPS (1536 SPF)
Bit depth                                : 16 bits
Compression mode                         : Lossy
Stream size                              : 189 MiB (2%)
Title                                    : Mono
Language                                 : Japanese
Service kind                             : Complete Main
Default                                  : No
Forced                                   : No
Original source medium                   : Blu-ray

Audio #6
ID                                       : 7
ID in the original source medium         : 4355 (0x1103)
Format                                   : AC-3
Format/Info                              : Audio Coding 3
Commercial name                          : Dolby Digital
Codec ID                                 : A_AC3
Duration                                 : 41 min 13 s
Bit rate mode                            : Constant
Bit rate                                 : 640 kb/s
Channel(s)                               : 2 channels
Channel layout                           : L R
Sampling rate                            : 48.0 kHz
Frame rate                               : 31.250 FPS (1536 SPF)
Bit depth                                : 16 bits
Compression mode                         : Lossy
Stream size                              : 189 MiB (2%)
Title                                    : Stereo
Language                                 : English
Service kind                             : Complete Main
Default                                  : No
Forced                                   : No
Original source medium                   : Blu-ray

Text #1
ID                                       : 8
ID in the original source medium         : 4608 (0x1200)
Format                                   : PGS
Codec ID                                 : S_HDMV/PGS
Codec ID/Info                            : Picture based subtitle format used on BDs/HD-DVDs
Duration                                 : 40 min 26 s
Bit rate                                 : 20.6 kb/s
Count of elements                        : 513
Stream size                              : 5.96 MiB (0%)
Language                                 : Japanese
Default                                  : No
Forced                                   : No
Original source medium                   : Blu-ray

Text #2
ID                                       : 10
ID in the original source medium         : 4609 (0x1201)
Format                                   : PGS
Codec ID                                 : S_HDMV/PGS
Codec ID/Info                            : Picture based subtitle format used on BDs/HD-DVDs
Duration                                 : 1 min 16 s
Bit rate                                 : 36.1 kb/s
Count of elements                        : 24
Stream size                              : 338 KiB (0%)
Language                                 : English
Default                                  : No
Forced                                   : No
Original source medium                   : Blu-ray

Menu
00:00:00.000                             : en:Chapter 01
00:01:42.769                             : en:Chapter 02
00:03:30.877                             : en:Chapter 03
00:07:09.220                             : en:Chapter 04
00:12:34.962                             : en:Chapter 05
00:18:08.545                             : en:Chapter 06
00:22:04.906                             : en:Chapter 07
00:26:29.462                             : en:Chapter 08
00:30:03.510                             : en:Chapter 09
00:33:43.604                             : en:Chapter 10
00:37:24.951                             : en:Chapter 11
00:39:36.290                             : en:Chapter 12






We have no issue with individuals posting or re-uploading our torrents on a platform we aren't on. However, if this is something you'd like to do, please do so in a 'as-is' format. We ask that you do not create a new torrent, include all descriptions you see above including the SEV logo, tags, notes and screenshots. If you'd like to become a permanent poster on a website we don't post to, feel free to get in contact with a Sublime Encoded Video member.


We are recruiting/training new members for SEV & seedbox providers as well as people to help out with subtitles. 
As you already know, we deliver quality, so you know the standard. 
If you're interested, feel free to contact any of the team members.

Category:Anime > Movies
Lang:English  English
Total Size:4.16 GB
Info Hash:7871fc0867daefa8274d6b90f5125a3b22ce84c6
Added By:D0ct0rLew
Date Added:29-12-2018 06:17:20

Files

File List: 
 File Size
Dragon Ball Z Dead Zone (1989) 1080p BDRip x265 FLAC 5.1 Goki [SEV]-clearlogo.png204.30 kB
Dragon Ball Z Dead Zone (1989) 1080p BDRip x265 FLAC 5.1 Goki [SEV]-fanart.jpg170.84 kB
Dragon Ball Z Dead Zone (1989) 1080p BDRip x265 FLAC 5.1 Goki [SEV]-logo.png204.30 kB
Dragon Ball Z Dead Zone (1989) 1080p BDRip x265 FLAC 5.1 Goki [SEV]-poster.jpg66.86 kB
Dragon Ball Z Dead Zone (1989) 1080p BDRip x265 FLAC 5.1 Goki [SEV].mkv4.16 GB
Dragon Ball Z Dead Zone (1989) 1080p BDRip x265 FLAC 5.1 Goki [SEV].nfo5.30 kB



Loading...
Comments

There are currently no comments. Be the first one to write something !

Disclaimer: None of the files shown here are actually hosted or transmitted by this server. The links are provided solely by this site's users. The site moderation is also a service provided by the site's users. The administrator of this site (ettv.tv) cannot be held responsible for what its users post, or any other actions of its users. You may not use this site to distribute or download any material when you do not have the legal rights to do so. It is your own responsibility to adhere to these terms.