kgf sarkar Manikarnika star trek discovery thakrey Xxx kedarnath thackeray malayalam the accidental prime minister supernatural evo aquaman telugu odiyan the flash why cheat india great british bake off s09e10 vikings tushy 18.12 1080p.mp4-ktr charlie chaplin 2 1080P Hindi mirzapur ettv mr majnu the grand tour 2018 ita Adanga Maru Tin Star etmovies dtone uri EVO malayalam 2018 movies AQUAMAN ita Bumblebee ethd ITA zero etrg venom f2 1080p 2018 maari 2 Game Of Thrones viswasam TamilRockers Kannada simmba Kannada ddr simbha tushyraw 1080p.mp4-ktr mortal engines simba petta DTOne uri the surgical strike kung fu the legend Young justice tamil robot 2.0 it brazzers it 2017 2.0 thakre Njan Prakashan glass fgt bohemian rhapsody Star Trek Discovery S02E02 
Warning! Use a VPN When Downloading Torrents!
Your IP Address is 34.228.143.13. Location is United States
Your Internet Provider is tracking your torrent activity! Hide your IP ADDRESS with a VPN!
We strongly recommend using NordVPN to anonymize your torrenting. 30 Day Money Back Guarantee!
Try it Now!
ETTV Recommended TV Shows
Greys.Anatomy.S15E14.HDTV.x264-KILLERS[ettv] torrent
The.Magicians.US.S04E05.WEB.x264-TBS[ettv] torrent
Survivor.S38E01.HDTV.x264-WRCR torrent
Chicago.Fire.S07E15.WEBRip.x264-PBS[ettv] torrent
Chicago.PD.S06E15.WEBRip.x264-PBS[ettv] torrent
Suits.S08E15.WEBRip.x264-PBS[ettv] torrent

ETTV Recommended SD
Ben.is.Back.2019.HDRip.XViD-ETRG torrent
Spider-Man.Into the Spider-Verse.2019.HDRip.XViD-ETRG torrent
Captain.Morten.and.the.Spider.Queen.2019.HDRip.XviD.AC3-EVO torrent
Dirty.Dealing.2019.HDRip.XviD.AC3-EVO torrent

ETTV Recommended HD
Green.Book.2019.1080p.WEB-DL.H264.AC3-EVO[EtHD] torrent
Instant.Family.2019.1080p.WEB-DL.H264.AC3-EVO[EtHD] torrent
Spider-Man.Into the Spider-Verse.2019.1080p.WEB-DL.H264.AC3-EVO[EtHD] torrent
Creed.II.2018.720p.BluRay.x264-DTS-HDChina[EtHD] torrent

ETTV Recommended UHD
The.Silence.of.the.Lambs.1991.2160p.UHDRip.x265.HDR.DTS-HD.MA.5.1-DTOne torrent
Robin.Hood.2018.UHD.BluRay.2160p.x265.Atmos.7.1-DTOne torrent
Big Pacific Season One 2018.2160p.UHD.BluRay.x265.SDR.FLAC.2.0-DTOne torrent
Close.Encounters.of.the.Third.Kind.1977.DC.4K.HDR.2160p.BDRip Ita Eng x265-NAHOM torrent

ETTV Recommended Cam
How to Train Your Dragon 3 2018 NEW 720p HDCAM-1XBET torrent
Happy Death Day 2U.2019.HDCAM.XViD.AC3-ETRG torrent
What Men Want 2019 HDCAM x264 AC3 MP4KiNG torrent
Alita Battle Angel 2019.HDCAM.V2.XViD.AC3-ETRG torrent

ETTV Recommended Foreign
 Daas Dev.2018.1080p.WEB-DL.AVC.AAC.DTOne torrent
Spider-Man: Into the Spider-Verse (2018)[720p - HDRip - HQ Audios [Tamil + Telugu + Hindi + Eng] - x264 - 1.2GB] torrent
Dance with the Devil (1997) UNRATED 720p BluRay x264 Eng Subs [Dual Audio] [Hindi DD 2.0 - English 5.1] Exclusive By -=!Dr.STAR!=- torrent
Skjelvet 2018 720p BluRay DD5.1 x264-NorTV[EtHD] torrent


Download Torrent "Now.You.See.Me.2013.720p.BrRip.x265.HEVCBay"

IMDB Details
Description:

An F.B.I. Agent and an Interpol Detective track a team of illusionists who pull off bank heists during their performances, and reward their audiences with the money.

Genre:

Crime, Mystery, Thriller

Download Torrent (Magnet)
Download Torrent (File)
Seeds: 51
Leechers: 4
Completed: 292 
Last Checked: 11-02-2019 16:17:10


Loading...
Details
Title:Now.You.See.Me.2013.720p.BrRip.x265.HEVCBay
Description:
[url=hevcbay.com]hevcbay.com[/url]

[code]General
Unique ID                                : 67697180450317390136821161572150129498 (0x32EE00B0D0AE637FB50D1A6AA515B35A)
Complete name                            : Now.You.See.Me.2013.720p.BrRip.x265.HEVCBay.com.mkv
Format                                   : Matroska
Format version                           : Version 4
File size                                : 584 MiB
Duration                                 : 2 h 4 min
Overall bit rate                         : 654 kb/s
Movie name                               : Now.You.See.Me.2013.720p.BrRip.x265.HEVCBay.com.mkv
Encoded date                             : UTC 2019-02-11 00:41:19
Writing application                      : hevcbay
Writing library                          : hevcbay.com / Lavf58.22.100
Comment                                  : Encoded by hevcbay.com
ENCODED-BY                               : hevcbay.com

Video
ID                                       : 1
Format                                   : HEVC
Format/Info                              : High Efficiency Video Coding
Format profile                           : [email protected]@Main
Codec ID                                 : V_MPEGH/ISO/HEVC
Duration                                 : 2 h 4 min
Bit rate                                 : 601 kb/s
Width                                    : 1 280 pixels
Height                                   : 534 pixels
Display aspect ratio                     : 2.40:1
Original display aspect ratio            : 2.40:1
Frame rate mode                          : Constant
Frame rate                               : 23.976 FPS
Color space                              : YUV
Chroma subsampling                       : 4:2:0
Bit depth                                : 8 bits
Bits/(Pixel*Frame)                       : 0.037
Stream size                              : 537 MiB (92%)
Writing library                          : Lavc58.40.100 libx265
Language                                 : English
Default                                  : Yes
Forced                                   : No
Color range                              : Limited

Audio
ID                                       : 2
Format                                   : AAC LC SBR PS
Format/Info                              : Advanced Audio Codec Low Complexity with Spectral Band Replication and Parametric Stereo
Commercial name                          : HE-AACv2
Format settings                          : NBC
Codec ID                                 : A_AAC-29
Duration                                 : 2 h 4 min
Bit rate                                 : 51.0 kb/s
Channel(s)                               : 2 channels
Channel layout                           : C
Sampling rate                            : 48.0 kHz
Frame rate                               : 23.438 FPS (2048 SPF)
Compression mode                         : Lossy
Delay relative to video                  : -148 ms
Stream size                              : 45.5 MiB (8%)
Writing library                          : Lavc58.40.100 libfdk_aac
Language                                 : English
Default                                  : Yes
Forced                                   : No

Text
ID                                       : 3
Format                                   : UTF-8
Codec ID                                 : S_TEXT/UTF8
Codec ID/Info                            : UTF-8 Plain Text
Duration                                 : 1 h 56 min
Bit rate                                 : 76 b/s
Count of elements                        : 2075
Stream size                              : 64.9 KiB (0%)
Title                                    : English
Language                                 : English
Default                                  : No
Forced                                   : No
[/code]





Category:Movies > HEVC/x265
Lang:English  English
Total Size:584 MB
Info Hash:32c681b42e2c8a7f8c540a3d4a4a9d8147e9afb9
Added By:g3m696
Date Added:11-02-2019 16:17:06

Files

File List: 
 File Size
Now.You.See.Me.2013.720p.BrRip.x265.HEVCBay.com.mkv584 MB



Loading...
Comments

There are currently no comments. Be the first one to write something !

Disclaimer: None of the files shown here are actually hosted or transmitted by this server. The links are provided solely by this site's users. The site moderation is also a service provided by the site's users. The administrator of this site (ettv.tv) cannot be held responsible for what its users post, or any other actions of its users. You may not use this site to distribute or download any material when you do not have the legal rights to do so. It is your own responsibility to adhere to these terms.