kgf sarkar Manikarnika star trek discovery thakrey Xxx kedarnath thackeray malayalam the accidental prime minister supernatural evo aquaman telugu odiyan the flash why cheat india great british bake off s09e10 vikings tushy 18.12 1080p.mp4-ktr charlie chaplin 2 1080P Hindi mirzapur ettv mr majnu the grand tour 2018 ita Adanga Maru Tin Star etmovies dtone uri EVO malayalam 2018 movies AQUAMAN ita Bumblebee ethd ITA zero etrg venom f2 1080p 2018 maari 2 Game Of Thrones viswasam TamilRockers Kannada simmba Kannada ddr simbha tushyraw 1080p.mp4-ktr mortal engines simba petta DTOne uri the surgical strike kung fu the legend Young justice tamil robot 2.0 it brazzers it 2017 2.0 thakre Njan Prakashan glass fgt bohemian rhapsody Star Trek Discovery S02E02 
Warning! Use a VPN When Downloading Torrents!
Your IP Address is 3.80.60.248. Location is United States
Your Internet Provider is tracking your torrent activity! Hide your IP ADDRESS with a VPN!
We strongly recommend using NordVPN to anonymize your torrenting. 30 Day Money Back Guarantee!
Try it Now!
ETTV Recommended TV Shows
Doom.Patrol.S01E02.WEBRip.x264-PBS[ettv] torrent
Strike.Back.S07E05.WEBRip.x264-PBS[ettv] torrent
Proven.Innocent.S01E02.WEB.x264-TBS[ettv] torrent
MacGyver.2016.S03E16.WEB.x264-TBS[ettv] torrent
Hawaii.Five-0.2010.S09E16.WEB.x264-TBS[ettv] torrent
The.Blacklist.S06E08.WEB.x264-TBS[ettv] torrent

ETTV Recommended SD
Dirty.Dealing.2019.HDRip.XviD.AC3-EVO torrent
Trading.Paint.2019.HDRip.XViD-ETRG torrent
Vox.Lux.2018.BRRip.XViD-ETRG torrent
Paddleton.2019.WEBRip.XviD-DiNGO[EtMovies] torrent

ETTV Recommended HD
Instant.Family.2018.1080p.BluRay.x264-SPARKS[EtHD] torrent
Iceman The Time Traveller 2018.Multi.1080p.Blu-ray.HEVC.DTS-HDMA.5.1-DTOne torrent
Serenity.2019.1080p.BluRay.HEVC.DTS-HD.MA.5.1-DTOne torrent
The Possession of Hannah Grace 2018 Multi.BluRay 1080p HEVC DTS-HD MA5.1-DTOne torrent

ETTV Recommended UHD
Ralph.Breaks.the.Internet.2018.UHD.2160p.BluRay.x265.HDR.Atmos.7.1-DTOne torrent
Mary.Queen.of.Scots.2018.MULTi.UHD.BluRay.2160p.x265.HDR.Atmos.7.1-DTOne torrent
The.Little.Mermaid.1989.UHD.BluRay.2160p.x265.HDR.Atmos.7.1-DTOne torrent
Fantastic.Beasts.The.Crimes.Of.Grindelwald.2018.MULTI.2160p.HDR.UHDRip.DD.5.1-DTOne torrent

ETTV Recommended Cam
What Men Want 2019 HDCAM x264 AC3 MP4KiNG torrent
The.Prodigy.2019..HDCAM.XViD.AC3-ETRG torrent
Run the Race 2019 720p HDCAM-1XBET torrent
Alita Battle Angel 2019 HDTC x264 AC3-ETRG torrent

ETTV Recommended Foreign
Monstrum 2018 BluRay 1080p TrueHD 5.1 x264-MTeam[EtHD] torrent
Total.Dhamaal.(2019).Untouch.Pre.DVD-DTOne torrent
Yamakasi (2001) x264 720p UNCUT WEB-DL Eng Subs {Dual Audio} [Hindi ORG DD 2.0 + French 2.0] Exclusive By DREDD torrent
Petta (2019) WebDL AVC AAC 2.0 - DTOne torrent


Download Torrent "The.Nines.2007.720p.BrRip.x265.HEVCBay."

IMDB Details
Description:

A troubled actor, a television show runner, and an acclaimed videogame designer find their lives intertwining in mysterious and unsettling ways.

Genre:

Drama, Fantasy, Mystery, Sci-Fi, Thriller

Download Torrent (Magnet)
Download Torrent (File)
Seeds: 38
Leechers: 10
Completed: 134 
Last Checked: 11-02-2019 16:24:16


Loading...
Details
Title:The.Nines.2007.720p.BrRip.x265.HEVCBay.
Description:
[url=hevcbay.com]hevcbay.com[/url]

[code]General
Unique ID : 16971461798630290947972555691883675106 (0xCC495AB7A6F501947C4A862C92EBDE2)
Complete name : The.Nines.2007.720p.BrRip.x265.HEVCBay.com.mkv
Format : Matroska
Format version : Version 4
File size : 375 MiB
Duration : 1 h 39 min
Overall bit rate : 527 kb/s
Movie name : The.Nines.2007.720p.BrRip.x265.HEVCBay.com.mkv
Encoded date : UTC 2019-02-11 01:01:35
Writing application : hevcbay
Writing library : hevcbay.com / Lavf58.22.100
Comment : Encoded by hevcbay.com
ENCODED-BY : hevcbay.com

Video
ID : 1
Format : HEVC
Format/Info : High Efficiency Video Coding
Format profile : [email protected]@Main
Codec ID : V_MPEGH/ISO/HEVC
Duration : 1 h 39 min
Bit rate : 474 kb/s
Width : 1 280 pixels
Height : 694 pixels
Display aspect ratio : 1.85:1
Original display aspect ratio : 1.85:1
Frame rate mode : Constant
Frame rate : 23.976 (23976/1000) FPS
Color space : YUV
Chroma subsampling : 4:2:0
Bit depth : 8 bits
Bits/(Pixel*Frame) : 0.022
Stream size : 338 MiB (90%)
Writing library : Lavc58.40.100 libx265
Default : Yes
Forced : No
Color range : Limited

Audio
ID : 2
Format : AAC LC SBR PS
Format/Info : Advanced Audio Codec Low Complexity with Spectral Band Replication and Parametric Stereo
Commercial name : HE-AACv2
Format settings : NBC
Codec ID : A_AAC-29
Duration : 1 h 39 min
Bit rate : 51.4 kb/s
Channel(s) : 2 channels
Channel layout : C
Sampling rate : 48.0 kHz
Frame rate : 23.438 FPS (2048 SPF)
Compression mode : Lossy
Delay relative to video : -148 ms
Stream size : 36.6 MiB (10%)
Writing library : Lavc58.40.100 libfdk_aac
Default : Yes
Forced : No[/code]





Category:Movies > HEVC/x265
Lang:English  English
Total Size:375 MB
Info Hash:fc7c7baf239cc750e06c7dbddffaa8f9166ccd06
Added By:g3m696
Date Added:11-02-2019 16:24:12

Files

File List: 
 File Size
The.Nines.2007.720p.BrRip.x265.HEVCBay.com.mkv375 MB



Loading...
Comments

There are currently no comments. Be the first one to write something !

Disclaimer: None of the files shown here are actually hosted or transmitted by this server. The links are provided solely by this site's users. The site moderation is also a service provided by the site's users. The administrator of this site (ettv.tv) cannot be held responsible for what its users post, or any other actions of its users. You may not use this site to distribute or download any material when you do not have the legal rights to do so. It is your own responsibility to adhere to these terms.