men in black rocketman 2019 the code s01e12 yesterday 2019 shazam 2019 etmovies young justice 0 Endgame big little lies s02e07 childs play 2019 alita battle angel 2019 masterchef australia captain marvel 2019 wentworth avengers endgame 2019 once upon a time in hollywood 2019 batman hush 2019 aladdin 2019 anna 2019 men in black international 2019 the bachelorette s15e11 etrg midsommar 2019 The 100 wentworth s07e09 Xxx the intruder 2019 Legion S03E05 money heist the lion king 2019 long shot 2019 shaft 2019 dumbo 2019 ddr fear the walking dead s05e08 the 100 s06e11 ma 2019 The Code us 2019 american dad spider man far from home 2019 john wick dark phoenix 2019 Ddr kabir singh ita masterchef australia s11e61 euphoria Legion john wick chapter 3 – parabellum 2019 stuber 2019 godzilla king of the monsters 2019 avengers endgame crawl 2019 yts the secret life of pets 2 2019 ethd brightburn 2019 hellboy 2019 avengers big little lies ettv love hip hop atlanta s08e19 toy story 4 2019 wwe wwe raw john wick 3 2.0 (2018) hindi annabelle comes home 2019 evo pokemon detective pikachu 2019 
Warning! Use a VPN When Downloading Torrents!
Your IP Address is 35.153.73.72. Location is United States
Your Internet Provider is tracking your torrent activity! Hide your IP ADDRESS with a VPN!
We strongly recommend using NordVPN to anonymize your torrenting. 30 Day Money Back Guarantee!
Try it Now!
ETTV Recommended TV Shows
Legion.S03E05.WEBRiP.x264-LucidTV[ettv] torrent
The.Bachelorette.S15E11.WEB.h264-TBS[ettv] torrent
Wentworth.S07E09.WEB.x264-PHOENiX[TGx] torrent
The.Code.2019.S01E12.WEB.x264-TBS[ettv] torrent
Blood.and.Treasure.S01E11.HDTV.x264-KILLERS[ettv] torrent
Good.Trouble.S02E06.WEB.x264-TBS[ettv] torrent

ETTV Recommended SD
Rock.Paper.Scissors.2019.HDRip.XviD.AC3-EVO[EtMovies] torrent
Skin.2019.HDRip.XViD-ETRG torrent
Tolkien.2019.HDRip.XViD-ETRG torrent
Armstrong.2019.BDRip.x264-CADAVER[EtMovies] torrent

ETTV Recommended HD
Twelve.2019.1080p.WEB-DL.H264.AC3-EVO[EtHD] torrent
Rock.Paper.Scissors.2019.1080p.WEB-DL.H264.AC3-EVO[EtHD] torrent
Skin.2019.1080p.WEB-DL.H264.AC3-EVO[EtHD] torrent
Tolkien.2019.1080p.WEB-DL.DD5.1.H264-CMRG[EtHD] torrent

ETTV Recommended UHD
Hellboy 2019.MULTi.UHD.BluRay.2160p.HDR.Atmos.7.1.HEVC-DDR torrent
Breakthrough 2019.MULTi.UHD.BluRay.2160p.HEVC.DTS-HD.MA7.1.[En+Hindi+Fr+Sp+Ur+Tur]-DDR torrent
The Quake 2018.MULTI.2160p.HDR.WEBRip.DTS-HDMA.5.1.HEVC-DDR torrent
Moon 2009.MULTi.UHD.Blu-ray.2160p.HDR.Atmos.7.1.HEVC-DDR torrent

ETTV Recommended Cam
Stuber 2019 720p HDCAM-1XBET torrent
Spider-Man Far From Home 2019 HD-TC x264 AC3-ETRG torrent
The Lion King 2019 HDCAM x264 AC3-ETRG torrent
Godzilla 2019 NEW HDCAM ac3-ETRG torrent

ETTV Recommended Foreign
Eai Ki Prem.2016.Bengali.1080p.AMZN.WEB-DL.DDP.5.1.H264-DDR[EtHD] torrent
Diljale.1996.1080p.WEB-DL.AVC.AAC.DDR torrent
Maari 2 (2018) 720p UNCUT HDRip x264 Eng Subs [Dual Audio] [Hindi DD 2.0 - Telugu 5.1] Exclusive By -=!Dr.STAR!=- torrent
Snow Flower 2019 720p BluRay x264 Ganool torrent


Download Torrent "Star Wars Episode II Attack of the Clones (2002) x 1600 (2160p) SDR 5.1 x26..."

IMDB Details
Description:

Ten years after initially meeting, Anakin Skywalker shares a forbidden romance with Padmé Amidala, while Obi-Wan Kenobi investigates an assassination attempt on the senator and discovers a secret clone army crafted for the Jedi.

Genre:

Action, Adventure, Fantasy, Sci-Fi

Download Torrent (Magnet)
Download Torrent (File)
Seeds: 405
Leechers: 167
Completed: 3,253 
Last Checked: 19-04-2019 23:00:28


Details
Title:Star Wars Episode II Attack of the Clones (2002) x 1600 (2160p) SDR 5.1 x26...
Description:
www.imdb.com/title/tt0121765/

Ten years after initially meeting, Anakin Skywalker shares a forbidden romance with Padmé Amidala, while Obi-Wan Kenobi investigates an assassination attempt on the senator and discovers a secret clone army crafted for the Jedi.

Source: DDR







Format                      : Matroska
Format version              : Version 4
File size                   : 5.46 GiB
Duration                    : 2 h 22 min
Overall bit rate            : 5 483 kb/s
Writing application         : HandBrake 1.2.0 2018121700

Video
ID                          : 1
Format                      : HEVC
Format/Info                 : High Efficiency Video Coding
Format profile              : Main [email protected]@High
Codec ID                    : V_MPEGH/ISO/HEVC
Duration                    : 2 h 22 min
Bit rate                    : 5 054 kb/s
Width                       : 3 840 pixels
Height                      : 1 600 pixels
Display aspect ratio        : 2.40:1
Frame rate mode             : Constant
Frame rate                  : 23.976 (24000/1001) FPS
Color space                 : YUV
Chroma subsampling          : 4:2:0
Bit depth                   : 10 bits
Bits/(Pixel*Frame)          : 0.034
Stream size                 : 5.03 GiB (92%)
Writing library             : x265 2.9:[Windows][GCC 7.1.0][64 bit] 10bit
Color primaries             : BT.709
Transfer characteristics    : BT.709
Matrix coefficients         : BT.709

Audio
ID                          : 2
Format                      : AC-3
Format/Info                 : Audio Coding 3
Commercial name             : Dolby Digital
Codec ID                    : A_AC3
Duration                    : 2 h 22 min
Bit rate mode               : Constant
Bit rate                    : 320 kb/s
Channel(s)                  : 6 channels
Channel layout              : L R C LFE Ls Rs
Sampling rate               : 48.0 kHz
Frame rate                  : 31.250 FPS (1536 SPF)
Bit depth                   : 16 bits
Compression mode            : Lossy
Stream size                 : 326 MiB (6%)
Title                       : Surround
Language                    : English

Text 
Language                    : English
Language                    : Spanish
Language                    : French
Language                    : French
Language                    : Dutch
Language                    : Portuguese
Language                    : Finnish
Language                    : Swedish
Language                    : Norwegian
Language                    : Danish
Language                    : English
Language                    : English
Language                    : Spanish
Language                    : Spanish
Language                    : French
Language                    : French
Language                    : Dutch
Language                    : Dutch
Language                    : Portuguese
Language                    : Portuguese
Language                    : Finnish
Language                    : Finnish
Language                    : Swedish
Language                    : Swedish
Language                    : Norwegian
Language                    : Norwegian
Language                    : Danish
Language                    : Danish
Language                    : English
Language                    : English
Language                    : English
Default                     : No
Forced                      : No
Category:Movies > UltraHD/4K
Lang:English  English
Total Size:5.46 GB
Info Hash:dc5501f67f21b6138ede2c8e15287636ef2b2386
Added By:phunpsyz
Date Added:19-04-2019 23:00:23

  

Files

File List: 
 File Size
Star Wars Episode II Attack of the Clones (2002) x 1600 (2160p) SDR 5.1 x265 10bit Phun Psyz.mkv5.46 GB



Loading...
Comments

There are currently no comments. Be the first one to write something !

Disclaimer: None of the files shown here are actually hosted or transmitted by this server. The links are provided solely by this site's users. The site moderation is also a service provided by the site's users. The administrator of this site (ettv.tv) cannot be held responsible for what its users post, or any other actions of its users. You may not use this site to distribute or download any material when you do not have the legal rights to do so. It is your own responsibility to adhere to these terms.