gemini man 2019 the flash ford v ferrari 2019 rq.mp4 arrow español Batwoman s01e09 frozen ii 2019 yts zombieland double tap 2019 watchmen s01e08 ettv The Flash s00e05 Rick and Morty s04e04 terminator dark fate 2019 ad astra 2019 castle rock the flash s06e09 etrg Crisis on Infinite Earths Supergirl s05e09 doctor sleep 2019 flash s06e09 Emergence S01E09 emergence joker The Flash s00e05 720p queen slim 2019 Batwoman s00e01 mr robot ethd ddr angel has fallen 2019 rick and morty Watchmen 21 bridges 2019 the mandalorian s01e05 FROZEN 2 ad astra jumanji the next level 2019 see treadstone s01e09 crisis the curse of oak island the purge s02e09 evo flash treadstone once upon a time in hollywood 2019 wwe arrow black lightning s03e09 batwoman the purge black lightning the mandalorian his dark materials hustlers 2019 hindi proper knives out 2019 ncis rambo last blood 2019 mandalorian silicon valley the curse of oak island s07e06 Vikings etmovies supergirl XXX oak island joker 2019 the irishman 2019 
Warning! Use a V.P.N when Downloading Torrents!
Your IP Address is 3.233.224.8. Location is United States
Your Internet Provider is tracking your torrent activity! Hide your IP ADDRESS with a V.P.N!
We strongly recommend using ExpressVP-N to anonymize your torrenting. 30 Day Money Back Guarantee!
Try it Now!
ETTV Recommended TV Shows
Treadstone.S01E09.iNTERNAL.WEB.h264-TRUMP[ettv] torrent
The.Purge.S02E09.WEBRip.x264-TBS[ettv] torrent
Emergence.S01E09.HDTV.x264-SVA[ettv] torrent
The.Flash.2014.S06E09.WEB.h264-TRUMP[ettv] torrent

ETTV Recommended SD
The.Final.Level.Escaping.Rancala.2019.HDRip.XviD.AC3-EVO torrent
5.Galaxies.2019.HDRip.XviD.AC3-EVO torrent
The.Room.2019.HDRip.XviD.AC3-EVO[EtMovies] torrent
Take.Home.Pay.2019.HDRip.XviD.AC3-EVO[EtMovies] torrent

ETTV Recommended HD
Killerman.2019.1080p.BluRay.X264-AMIABLE[EtHD] torrent
Animals.2019.1080p.WEB-DL.H264.AC3-EVO[EtHD] torrent
John.Wick.Chapter.2.2017.BDRip.1080p.HEVC.HDR.TrueHD.DD5.1.Gerald torrent
The.Room.2019.1080p.WEB-DL.x264.AAC-ETRG torrent

ETTV Recommended UHD
10 Things I Hate About You 1999.UHD.2160p.HDR.WEBRip.DTS-HD MA 5.1.HEVC-DDR torrent
Pirates of the Caribbean - The Curse of the Black Pearl 2003.MULTi.UHD.2160p.HDR.WEBRip.DTS-HD MA 5.1.HEVC-DDR torrent
The Report 2019.UHD.2160p.HDR.WEBRip.DDP.5.1.HEVC-DDR torrent
The Muppet Christmas Carol 1992.UHD.2160p.HDR.WEBRip.DTS-HDMA.5.1.HEVC-DDR torrent

ETTV Recommended Cam
Dark Waters 2019 HDCAM x264-ETRG torrent
Blue Story 2019 HDCAM x264 AC3-ETRG torrent
Jay and Silent Bob Reboot 2019 HDCAM x264-ETRG torrent
Jumanji.The.Next.Level.2019.NEW.HDCAM.x264.AC3-ETRG torrent

ETTV Recommended Foreign
The Sky Is Pink (2019) Hindi 720p HDRip x264 AAC ESubs - Downloadhub torrent
Raid.2019.Hindi.Zee5.1080p.WEB-DL.x264.AAC.Esub -DDR[EtHD] torrent
The Pineville Heist (2016) 720p WEBRip x264 [Dual Audio] [Hindi 2.0 - English 2.0] Exclusive By -=!Dr.STAR!=- torrent
War 2019.MULTi.Bluray.1080p.Atmos.7.1.HEVC-DDR torrent


Download Torrent "13 Hours-The Secret Soldiers of Benghazi 2016.UHD.BluRay.2160p.HEVC.HDR.Atm..."

IMDB Details
Description:

N/A

Genre:

N/A

Download Torrent (Magnet)
Download Torrent (File)
Seeds: 71
Leechers: 152
Completed: 142 
Last Checked: 17-06-2019 22:49:59


Loading...
Details
Title:13 Hours-The Secret Soldiers of Benghazi 2016.UHD.BluRay.2160p.HEVC.HDR.Atm...
Description:




SPECS

Source : UHD Blu-ray

Format                                   : Matroska
File size                                : 23.2 GiB
Duration                                 : 2 h 24 min
Overall bit rate mode                    : Variable
Overall bit rate                         : 23.0 Mb/s

Video
Format                                   : HEVC/HDR
Bit rate                                 : 15.7 Mb/s
Width                                    : 3 840 pixels
Height                                   : 1 600 pixels
Bit depth                                : 10 bits
Color primaries                          : BT.2020
Transfer characteristics                 : PQ
Matrix coefficients                      : BT.2020 non-constant
Mastering display color primaries        : Display P3
Mastering display luminance              : min: 0.0001 cd/m2, max: 1000 cd/m2


Audio
Audio #1
ID                                       : 2
Format                                   : MLP FBA 16-ch
Format/Info                              : Meridian Lossless Packing FBA with 16-channel presentation
Commercial name                          : Dolby TrueHD with Dolby Atmos
Codec ID                                 : A_TRUEHD
Duration                                 : 2 h 24 min
Bit rate mode                            : Variable
Bit rate                                 : 4 642 kb/s
Maximum bit rate                         : 7 500 kb/s
Channel(s)                               : 8 channels
Channel layout                           : L R C LFE Ls Rs Lb Rb
Sampling rate                            : 48.0 kHz
Frame rate                               : 1 200.000 FPS (40 SPF)
Compression mode                         : Lossless
Delay relative to video                  : 32 ms
Stream size                              : 4.68 GiB (20%)
Language                                 : English
Default                                  : Yes
Forced                                   : No
Number of dynamic objects                : 11
Bed channel count                        : 1 channel
Bed channel configuration                : LFE

Audio #2
ID                                       : 3
Format                                   : AC-3
Format/Info                              : Audio Coding 3
Commercial name                          : Dolby Digital
Codec ID                                 : A_AC3
Duration                                 : 2 h 24 min
Bit rate mode                            : Constant
Bit rate                                 : 640 kb/s
Channel(s)                               : 6 channels
Channel layout                           : L R C LFE Ls Rs
Sampling rate                            : 48.0 kHz
Frame rate                               : 31.250 FPS (1536 SPF)
Bit depth                                : 16 bits
Compression mode                         : Lossy
Delay relative to video                  : 32 ms
Stream size                              : 661 MiB (3%)
Language                                 : English
Service kind                             : Complete Main
Default                                  : No
Forced                                   : No

Audio #3
ID                                       : 4
Format                                   : AC-3
Format/Info                              : Audio Coding 3
Commercial name                          : Dolby Digital
Codec ID                                 : A_AC3
Duration                                 : 2 h 24 min
Bit rate mode                            : Constant
Bit rate                                 : 640 kb/s
Channel(s)                               : 6 channels
Channel layout                           : L R C LFE Ls Rs
Sampling rate                            : 48.0 kHz
Frame rate                               : 31.250 FPS (1536 SPF)
Bit depth                                : 16 bits
Compression mode                         : Lossy
Delay relative to video                  : 1 ms
Stream size                              : 661 MiB (3%)
Language                                 : Spanish
Service kind                             : Complete Main
Default                                  : No
Forced                                   : No

Audio #4
ID                                       : 5
Format                                   : AC-3
Format/Info                              : Audio Coding 3
Commercial name                          : Dolby Digital
Codec ID                                 : A_AC3
Duration                                 : 2 h 24 min
Bit rate mode                            : Constant
Bit rate                                 : 640 kb/s
Channel(s)                               : 6 channels
Channel layout                           : L R C LFE Ls Rs
Sampling rate                            : 48.0 kHz
Frame rate                               : 31.250 FPS (1536 SPF)
Bit depth                                : 16 bits
Compression mode                         : Lossy
Delay relative to video                  : 1 ms
Stream size                              : 661 MiB (3%)
Language                                 : French
Service kind                             : Complete Main
Default                                  : No
Forced                                   : No

Audio #5
ID                                       : 6
Format                                   : AC-3
Format/Info                              : Audio Coding 3
Commercial name                          : Dolby Digital
Codec ID                                 : A_AC3
Duration                                 : 2 h 24 min
Bit rate mode                            : Constant
Bit rate                                 : 640 kb/s
Channel(s)                               : 6 channels
Channel layout                           : L R C LFE Ls Rs
Sampling rate                            : 48.0 kHz
Frame rate                               : 31.250 FPS (1536 SPF)
Bit depth                                : 16 bits
Compression mode                         : Lossy
Delay relative to video                  : 1 ms
Stream size                              : 661 MiB (3%)
Language                                 : Portuguese

Subs:
En Fr Sp Pt


[email protected]
Category:Movies > UltraHD/4K
Lang:English  English
Total Size:23.23 GB
Info Hash:ac8844db400e40f6f6b0ea16be32b6115d116dcc
Added By:DDR
Date Added:17-06-2019 22:49:51

  

Files

File List: 
 File Size
13 Hours-The Secret Soldiers of Benghazi 2016.UHD.BluRay.2160p.HEVC.HDR.Atmos.7.1-DDR.mkv23.23 GB
A DDR Release !!!.txt287.00 B
Torrent downloaded from Desitorrents.tv.txt28.00 B



Loading...
Comments

There are currently no comments. Be the first one to write something !

Disclaimer: None of the files shown here are actually hosted or transmitted by this server. The links are provided solely by this site's users. The site moderation is also a service provided by the site's users. The administrator of this site (ettv.tv) cannot be held responsible for what its users post, or any other actions of its users. You may not use this site to distribute or download any material when you do not have the legal rights to do so. It is your own responsibility to adhere to these terms.