nancy drew aew evo Rick and Morty S04E04 silicon valley knives out 2019 seal team s03e09 survivor gemini man 2019 the mandalorian s01e04 Christmas The Irishman queen slim 2019 etrg ethd see Titans v wars survivor s39e11 angel has fallen 2019 mr robot arrow seal team vikings s06e02 wwe modern family s11e08 stumptown The Morning Show the irishman 2019 hustlers 2019 joker 2019 Vikings nancy drew s01e08 stumptown s01e08 frozen ii 2019 the flash terminator dark fate 2019 rambo last blood 2019 the flash s06e08 supernatural ford v ferrari 2019 xxx marvel week mandalorian maleficent mistress of evil 2019 21 bridges 2019 yts Ad Astra  ncis castle rock south park s23e09 vikings s06e01 etmovies ad astra 2019 batwoman joker the mandalorian treadstone ettv South Park dc week modern family supergirl watchmen proper rick and morty RIVERDALE the walking dead Hindi His Dark Materials ddr arrow s08e07 
Warning! Use a V.P.N when Downloading Torrents!
Your IP Address is 100.26.176.182. Location is United States
Your Internet Provider is tracking your torrent activity! Hide your IP ADDRESS with a V.P.N!
We strongly recommend using ExpressVP-N to anonymize your torrenting. 30 Day Money Back Guarantee!
Try it Now!
ETTV Recommended TV Shows
Evil.S01E09.HDTV.x264-KILLERS[ettv] torrent
Young.Sheldon.S03E09.HDTV.x264-SVA[ettv] torrent
Legacies.S02E07.HDTV.x264-SVA[ettv] torrent
Supernatural.S15E07.HDTV.x264-SVA[ettv] torrent

ETTV Recommended SD
Amundsen.2019.BDRip.XviD.AC3-EVO[EtMovies] torrent
A.Holiday.Boyfriend.2019.HDRip.XviD.AC3-EVO[EtMovies] torrent
Downton Abbey.2019.BRRip.XviD.AC3-EVO[EtMovies] torrent
The.Dunes.2019.HDRip.XviD.AC3-EVO torrent

ETTV Recommended HD
Ad.Astra.2019.1080p.Bluray.DTS-HD.MA.7.1.X264-EVO[EtHD] torrent
Little.Joe.2019.1080p.AMZN.WEB-DL.DDP5.1.H.264-NTG[EtHD] torrent
Dark.Light.2019.1080p.AMZN.WEB-DL.DDP5.1.H.264-NTG[EtHD] torrent
Baywatch.2017.BDRip.1080p.x264.Multilang.TrueHD.DD5.1.Gerald torrent

ETTV Recommended UHD
Hustlers.2019.2160p.UHD.BluRay.X265.10bit.HDR.TrueHD.7.1.Atmos-AAAUHD torrent
It.Chapter.Two.2019.2160p.UHD.BluRay.X265.10bit.HDR.TrueHD.7.1.Atmos-AAAUHD torrent
John.Wick.2014.BDRip.2160p.UHD.HDR.Eng.Fre.Spa.TrueHD.DD5.1.Gerald torrent
X-Men.Apocalypse.2016.BDRip.2160p.UHD.HDR.Multilang.TrueHD.DTS.DD5.1.Gerald torrent

ETTV Recommended Cam
Last Christmas 2019 HDCAM x264 AC3-ETRG torrent
Dark Waters 2019 HDCAM x264-ETRG torrent
Blue Story 2019 HDCAM x264 AC3-ETRG torrent
Jay and Silent Bob Reboot 2019 HDCAM x264-ETRG torrent

ETTV Recommended Foreign
 The Lion King (2019) x264 720p BluRay {Dual Audio} [Hindi ORG DD 2.0 + English 2.0] Exclusive By DREDD torrent
Kala Shah Kala 2019 Punjabi 720p WEBRip x264 AAC - LOKiHD - Telly torrent
A Christmas Prince The Royal Baby 2019 WebRip Dual Audio [Hindi 5.1 + English 5.1] 720p x264 AAC ESub - mkvCinemas [Telly] torrent
Panipat (2019) Hindi 720p PreDVD Rip x264 AAC 1.2GB CineVood Exclusive torrent


Download Torrent "John Wick 3 - Parabellum (2019) English 1080p BluRay x264 AAC 5.1 ESUBS - M..."

IMDB Details
Description:

N/A

Genre:

N/A

Download Torrent (Magnet)
Download Torrent (File)
Seeds: 1,691
Leechers: 1,943
Completed: 16,461 
Last Checked: 14-08-2019 09:43:51


Loading...
Details
Title:John Wick 3 - Parabellum (2019) English 1080p BluRay x264 AAC 5.1 ESUBS - M...
Description:



****************************
_____ _ _ 
|_ _|___ | || | _ _ 
| | / _ \| || || | | |
| || __/| || || |_| |
|_| \___||_||_| \__, |
|___/ 
****************************
Team Telly Proudly Presents
****************************
------------------
|Media Info|
------------------
Complete name                            : J:\John Wick 3 - Parabellum (2019) English 1080p BluRay x264 AAC 5.1 ESUBS - MoviePirate [Telly].mkv
Format                                   : Matroska
Format version                           : Version 4
File size                                : 2.35 GiB
Duration                                 : 2 h 11 min
Overall bit rate                         : 2 569 kb/s
Movie name                               : MoviePirate.Club
Encoded date                             : UTC 2019-08-14 07:08:59
Writing application                      : mkvmerge v35.0.0 ('All The Love In The World') 64-bit
Writing library                          : libebml v1.3.9 + libmatroska v1.5.2 / Lavf58.20.100
Video
ID                                       : 1
Format                                   : AVC
Format/Info                              : Advanced Video Codec
Format profile                           : [email protected]
Format settings                          : CABAC / 5 Ref Frames
Format settings, CABAC                   : Yes
Format settings, Reference frames        : 5 frames
Codec ID                                 : V_MPEG4/ISO/AVC
Duration                                 : 2 h 11 min
Bit rate                                 : 2 200 kb/s
Width                                    : 1 920 pixels
Height                                   : 800 pixels
Display aspect ratio                     : 2.40:1
Frame rate mode                          : Constant
Frame rate                               : 23.976 (24000/1001) FPS
Color space                              : YUV
Chroma subsampling                       : 4:2:0
Bit depth                                : 8 bits
Scan type                                : Progressive
Bits/(Pixel*Frame)                       : 0.060
Stream size                              : 2.00 GiB (85%)
Title                                    : MoviePirate.Club
Writing library                          : x264 core 157 r2935 545de2f
Encoding settings                        : cabac=1 / ref=5 / deblock=1:0:0 / analyse=0x1:0x111 / me=hex / subme=8 / psy=1 / psy_rd=1.00:0.00 / mixed_ref=1 / me_range=16 / chroma_me=1 / trellis=2 / 8x8dct=0 / cqm=0 / deadzone=21,11 / fast_pskip=1 / chroma_qp_offset=-2 / threads=25 / lookahead_threads=4 / sliced_threads=0 / nr=0 / decimate=1 / interlaced=0 / bluray_compat=0 / constrained_intra=0 / bframes=3 / b_pyramid=2 / b_adapt=1 / b_bias=0 / direct=3 / weightb=1 / open_gop=0 / weightp=2 / keyint=240 / keyint_min=24 / scenecut=40 / intra_refresh=0 / rc_lookahead=50 / rc=abr / mbtree=1 / bitrate=2200 / ratetol=1.0 / qcomp=0.60 / qpmin=0 / qpmax=69 / qpstep=4 / vbv_maxrate=50000 / vbv_bufsize=62500 / nal_hrd=none / filler=0 / ip_ratio=1.40 / aq=1:1.00
Default                                  : Yes
Forced                                   : No
Color range                              : Limited
Color primaries                          : BT.709
Transfer characteristics                 : BT.709
Matrix coefficients                      : BT.709
Audio
ID                                       : 2
Format                                   : AAC LC
Format/Info                              : Advanced Audio Codec Low Complexity
Codec ID                                 : A_AAC-2
Duration                                 : 2 h 11 min
Bit rate                                 : 384 kb/s
Channel(s)                               : 6 channels
Channel layout                           : C L R Ls Rs LFE
Sampling rate                            : 48.0 kHz
Frame rate                               : 46.875 FPS (1024 SPF)
Compression mode                         : Lossy
Delay relative to video                  : -21 ms
Stream size                              : 361 MiB (15%)
Title                                    : MoviePirate.Club
Language                                 : English
Default                                  : Yes
Forced                                   : No
Text
ID                                       : 3
Format                                   : ASS
Codec ID                                 : S_TEXT/ASS
Codec ID/Info                            : Advanced Sub Station Alpha
Duration                                 : 1 h 59 min
Bit rate                                 : 41 b/s
Count of elements                        : 764
Compression mode                         : Lossless
Stream size                              : 36.8 KiB (0%)
Title                                    : MoviePirate.Club
Language                                 : English
Default                                  : No
Forced                                   : No
****************************
Tellytorrent.net 
Team Telly Official Site
****************************
[size=29]www.MoviePirate.club[/size]
Enjoy Exclusives Content only on TellyTorrent.net







Category:Movies > HD 1080p
Lang:English  English
Total Size:2.35 GB
Info Hash:71b29da7595fec7915a018c2353d7c0eef7f9634
Added By:uploader6969
Date Added:14-08-2019 09:43:46

  

Files

File List: 
 File Size
John Wick 3 - Parabellum (2019) English 1080p BluRay x264 AAC 5.1 ESUBS - MoviePirate [Telly].mkv2.35 GB



Loading...
Comments

There are currently no comments. Be the first one to write something !

Disclaimer: None of the files shown here are actually hosted or transmitted by this server. The links are provided solely by this site's users. The site moderation is also a service provided by the site's users. The administrator of this site (ettv.tv) cannot be held responsible for what its users post, or any other actions of its users. You may not use this site to distribute or download any material when you do not have the legal rights to do so. It is your own responsibility to adhere to these terms.