supernatural s15e07 Marriage Story ad astra 2019 The Morning Show evo the mandalorian S01E05 etmovies vikings s06e02 The Mandalorian terminator dark fate 2019 ethd reprisal  mandalorian servant his dark materials ddr ad astra rick and morty young sheldon s03e09 proper yts seal team  vikings s06e01 Rick and Morty S04E04 titans Evil v wars queen slim 2019 jumanji the next level 2019 21 bridges 2019 ettv rambo last blood 2019 mr robot joker vikings see s01e08 watchmen rq.mp4 wwe angel has fallen 2019 ford v ferrari 2019 Mandalorian S01E05 Batwoman the irishman 2019 the flash supergirl south park hustlers 2019 legacies s02e07 the walking dead Silicon Valley frozen ii 2019 xxx gemini man 2019 arrow etrg treadstone legacies young sheldon Christmas  knives out 2019 joker 2019 the mandalorian s01e04 hindi For All Mankind the irishman Evil S01E09 harley quinn supernatural see 
Warning! Use a V.P.N when Downloading Torrents!
Your IP Address is 3.231.229.89. Location is United States
Your Internet Provider is tracking your torrent activity! Hide your IP ADDRESS with a V.P.N!
We strongly recommend using ExpressVP-N to anonymize your torrenting. 30 Day Money Back Guarantee!
Try it Now!
ETTV Recommended TV Shows
Evil.S01E09.HDTV.x264-KILLERS[ettv] torrent
Young.Sheldon.S03E09.HDTV.x264-SVA[ettv] torrent
Legacies.S02E07.HDTV.x264-SVA[ettv] torrent
Supernatural.S15E07.HDTV.x264-SVA[ettv] torrent

ETTV Recommended SD
Amundsen.2019.BDRip.XviD.AC3-EVO[EtMovies] torrent
A.Holiday.Boyfriend.2019.HDRip.XviD.AC3-EVO[EtMovies] torrent
Downton Abbey.2019.BRRip.XviD.AC3-EVO[EtMovies] torrent
The.Dunes.2019.HDRip.XviD.AC3-EVO torrent

ETTV Recommended HD
Ad.Astra.2019.1080p.Bluray.DTS-HD.MA.7.1.X264-EVO[EtHD] torrent
Little.Joe.2019.1080p.AMZN.WEB-DL.DDP5.1.H.264-NTG[EtHD] torrent
Dark.Light.2019.1080p.AMZN.WEB-DL.DDP5.1.H.264-NTG[EtHD] torrent
Baywatch.2017.BDRip.1080p.x264.Multilang.TrueHD.DD5.1.Gerald torrent

ETTV Recommended UHD
Hustlers.2019.2160p.UHD.BluRay.X265.10bit.HDR.TrueHD.7.1.Atmos-AAAUHD torrent
It.Chapter.Two.2019.2160p.UHD.BluRay.X265.10bit.HDR.TrueHD.7.1.Atmos-AAAUHD torrent
John.Wick.2014.BDRip.2160p.UHD.HDR.Eng.Fre.Spa.TrueHD.DD5.1.Gerald torrent
X-Men.Apocalypse.2016.BDRip.2160p.UHD.HDR.Multilang.TrueHD.DTS.DD5.1.Gerald torrent

ETTV Recommended Cam
Last Christmas 2019 HDCAM x264 AC3-ETRG torrent
Dark Waters 2019 HDCAM x264-ETRG torrent
Blue Story 2019 HDCAM x264 AC3-ETRG torrent
Jay and Silent Bob Reboot 2019 HDCAM x264-ETRG torrent

ETTV Recommended Foreign
 The Lion King (2019) x264 720p BluRay {Dual Audio} [Hindi ORG DD 2.0 + English 2.0] Exclusive By DREDD torrent
Kala Shah Kala 2019 Punjabi 720p WEBRip x264 AAC - LOKiHD - Telly torrent
A Christmas Prince The Royal Baby 2019 WebRip Dual Audio [Hindi 5.1 + English 5.1] 720p x264 AAC ESub - mkvCinemas [Telly] torrent
Panipat (2019) Hindi 720p PreDVD Rip x264 AAC 1.2GB CineVood Exclusive torrent


Download Torrent "Legion S03E08 1080p AMZN WEBrip x265 DDP5.1 D0ct0rLew[SEV]"

IMDB Details
Description:

David Haller is a troubled young man diagnosed as schizophrenic, but after a strange encounter, he discovers special powers that will change his life forever.

Genre:

Action, Drama, Sci-Fi

Download Torrent (Magnet)
Download Torrent (File)
Seeds: 244
Leechers: 97
Completed: 1,969 
Last Checked: 14-08-2019 10:09:49


Details
Title:Legion S03E08 1080p AMZN WEBrip x265 DDP5.1 D0ct0rLew[SEV]
Description:





Media Information

General
Unique ID : 163015478337039452627182121632841796298 (0x7AA3A39CE5591B8EA0C632937ADF0ACA)
Complete name : Legion S03E08 1080p AMZN WEBrip x265 DDP5.1 D0ct0rLew[SEV].mkv
Format : Matroska
Format version : Version 4
File size : 1.97 GiB
Duration : 50 min 13 s
Overall bit rate : 5 614 kb/s
Encoded date : UTC 2019-08-14 07:38:24
Writing application : mkvmerge v34.0.0 ('Sight and Seen') 64-bit
Writing library : libebml v1.3.7 + libmatroska v1.5.0

Video
ID : 1
Format : HEVC
Format/Info : High Efficiency Video Coding
Format profile : Main [email protected]@Main
Codec ID : V_MPEGH/ISO/HEVC
Duration : 50 min 13 s
Bit rate : 4 972 kb/s
Width : 1 920 pixels
Height : 1 080 pixels
Display aspect ratio : 16:9
Frame rate mode : Constant
Frame rate : 23.976 (24000/1001) FPS
Color space : YUV
Chroma subsampling : 4:2:0
Bit depth : 10 bits
Bits/(Pixel*Frame) : 0.100
Stream size : 1.74 GiB (89%)
Writing library : x265 3.1+7-147fb92c5ed5:[Windows][MSVC 1921][64 bit] 10bit
Encoding settings : cpuid=1111039 / frame-threads=4 / numa-pools=16 / wpp / no-pmode / no-pme / no-psnr / no-ssim / log-level=2 / input-csp=1 / input-res=1920x1080 / interlace=0 / total-frames=72240 / level-idc=0 / high-tier=1 / uhd-bd=0 / ref=4 / no-allow-non-conformance / no-repeat-headers / annexb / no-aud / no-hrd / info / hash=0 / no-temporal-layers / open-gop / min-keyint=23 / keyint=250 / gop-lookahead=0 / bframes=16 / b-adapt=2 / b-pyramid / bframe-bias=0 / rc-lookahead=90 / lookahead-slices=4 / scenecut=40 / radl=0 / no-splice / no-intra-refresh / ctu=64 / min-cu-size=8 / no-rect / no-amp / max-tu-size=32 / tu-inter-depth=4 / tu-intra-depth=4 / limit-tu=0 / rdoq-level=2 / dynamic-rd=0.00 / no-ssim-rd / signhide / no-tskip / nr-intra=0 / nr-inter=0 / no-constrained-intra / no-strong-intra-smoothing / max-merge=3 / limit-refs=3 / limit-modes / me=3 / subme=7 / merange=92 / temporal-mvp / no-hme / weightp / no-weightb / no-analyze-src-pics / deblock=0:0 / sao / no-sao-non-deblock / rd=4 / no-early-skip / rskip / no-fast-intra / no-tskip-fast / no-cu-lossless / no-b-intra / no-splitrd-skip / rdpenalty=0 / psy-rd=1.00 / psy-rdoq=1.00 / no-rd-refine / no-lossless / cbqpoffs=0 / crqpoffs=0 / rc=crf / crf=19.1 / qcomp=0.60 / qpstep=4 / stats-write=0 / stats-read=0 / ipratio=1.40 / pbratio=1.30 / aq-mode=3 / aq-strength=0.95 / cutree / zone-count=0 / no-strict-cbr / qg-size=32 / no-rc-grain / qpmax=69 / qpmin=0 / no-const-vbv / sar=0 / overscan=0 / videoformat=5 / range=0 / colorprim=2 / transfer=2 / colormatrix=2 / chromaloc=0 / display-window=0cll=0,0 / min-luma=0 / max-luma=1023 / log2-max-poc-lsb=8 / vui-timing-info / vui-hrd-info / slices=1 / no-opt-qp-pps / no-opt-ref-list-length-pps / no-multi-pass-opt-rps / scenecut-bias=0.05 / no-opt-cu-delta-qp / no-aq-motion / no-hdr / no-hdr-opt / no-dhdr10-opt / no-idr-recovery-sei / analysis-reuse-level=5 / scale-factor=0 / refine-intra=0 / refine-inter=0 / refine-mv=0 / refine-ctu-distortion=0 / no-limit-sao / ctu-info=0 / no-lowpass-dct / refine-analysis-type=0 / copy-pic=1 / max-ausize-factor=1.0 / no-dynamic-refine / no-single-sei / no-hevc-aq / no-svt / no-field / qp-adaptation-range=1.00
Language : English
Default : Yes
Forced : No

Audio
ID : 2
Format : E-AC-3
Format/Info : Enhanced AC-3
Commercial name : Dolby Digital Plus
Codec ID : A_EAC3
Duration : 50 min 12 s
Bit rate mode : Constant
Bit rate : 640 kb/s
Channel(s) : 6 channels
Channel layout : L R C LFE Ls Rs
Sampling rate : 48.0 kHz
Frame rate : 31.250 FPS (1536 SPF)
Compression mode : Lossy
Delay relative to video : 30 ms
Stream size : 230 MiB (11%)
Language : English
Service kind : Complete Main
Default : Yes
Forced : No

Text
ID : 3
Format : UTF-8
Codec ID : S_TEXT/UTF8
Codec ID/Info : UTF-8 Plain Text
Duration : 49 min 9 s
Bit rate : 35 b/s
Count of elements : 536
Stream size : 12.9 KiB (0%)
Language : English
Default : Yes
Forced : No

We have no issue with individuals posting or re-uploading our torrents on a platform we aren't on. However, if this is something you'd like to do, please do so in a 'as-is' format. We ask that you do not create a new torrent, include all descriptions you see above including the SEV logo, tags, notes and screenshots.
If you'd like to become a permanent poster on a website we don't post to, feel free to get in contact with a Sublime Encoded Video member.

We are recruiting/training new members for SEV & seedbox providers as well as people to help out with subtitles.
As you already know, we deliver quality, so you know the standard.
If you're interested, feel free to contact any of the team members.
Category:TV > HEVC/x265
Lang:English  English
Total Size:1.97 GB
Info Hash:8ed5a5be141b5d564d3e12f3c01fe4bc2928dd69
Added By:D0ct0rLew
Date Added:14-08-2019 10:09:45

  

Files

File List: 
 File Size
Legion S03E08 1080p AMZN WEBrip x265 DDP5.1 D0ct0rLew[SEV].mkv1.97 GB



Loading...
Comments

There are currently no comments. Be the first one to write something !

Disclaimer: None of the files shown here are actually hosted or transmitted by this server. The links are provided solely by this site's users. The site moderation is also a service provided by the site's users. The administrator of this site (ettv.tv) cannot be held responsible for what its users post, or any other actions of its users. You may not use this site to distribute or download any material when you do not have the legal rights to do so. It is your own responsibility to adhere to these terms.