fast furious presents hobbs shaw 2019 0 rick and morty s04e04 hustlers 2019 star wars ettv abominable 2019 ad astra jumanji the next level 2019 yts mandalorian s01e05 the irishman see etrg vikings evo rick and morty the morning show Supergirl joker 2019 zombieland double tap 2019 ad astra 2019 the lion king 2019 knives out 2019 terminator dark fate 2019 blue bloods s10e10 The Mandalorian s01e05 angel has fallen 2019 Christmas the flash ford v ferrari 2019 etmovies gemini man 2019 ufc watchmen rambo last blood 2019 silicon valley 21 bridges 2019 see s01e08 His Dark Materials supernatural ufc on espn 7 it chapter two 2019 gold rush once upon a time in hollywood 2019 frozen 2 joker ddr arrow español shameless ethd ray donovan the mandalorian  xxx doctor sleep 2019 The Walking Dead hindi midway 2019 doctor sleep mandalorian the irishman 2019 frozen ii 2019 mr robot vikings s06e01 rq.mp4 maleficent mistress of evil 2019 arrow the blacklist s07e09 the blacklist queen slim 2019 the mandalorian s01e04 
Warning! Use a V.P.N when Downloading Torrents!
Your IP Address is 3.95.131.208. Location is United States
Your Internet Provider is tracking your torrent activity! Hide your IP ADDRESS with a V.P.N!
We strongly recommend using ExpressVP-N to anonymize your torrenting. 30 Day Money Back Guarantee!
Try it Now!
ETTV Recommended TV Shows
His.Dark.Materials.S01E06.HDTV.x264-MTB[ettv] torrent
Mr.Robot.S04E10.WEB.h264-TBS[ettv] torrent
NCIS.Los.Angeles.S11E11.HDTV.x264-KILLERS[ettv] torrent
Silicon.Valley.S06E07.WEB.h264-TBS[ettv] torrent

ETTV Recommended SD
The.Dunes.2019.HDRip.XviD.AC3-EVO torrent
The.Operative.2019.BRRip.XviD.AC3-EVO torrent
The.Man.in.The.Trunk.2019.BRRip.XviD.AC3-EVO torrent
Doctor.Sleep.2019.HC.HDRip.XviD.AC3-EVO[EtMovies] torrent

ETTV Recommended HD
Dark.Light.2019.1080p.AMZN.WEB-DL.DDP5.1.H.264-NTG[EtHD] torrent
Bottom of the 9th.2019.720p.WEB-DL.x264.AAC-ETRG torrent
Same.Time.Next.Christmas.2019.1080p.HULU.WEB-DL.DDP5.1.H.264-KamiKaze[EtHD] torrent
Mistletoe and Menorahs 2019 Lifetime 720p Web X264 Solar torrent

ETTV Recommended UHD
Hustlers.2019.MULTi.UHD.Bluray.2160p.HDR.Atmos.7.1.HEVC-DDR torrent
IT.Chapter.Two.2019.MULTi.UHD.Bluray.2160p.HDR.Atmos.7.1.HEVC-DDR torrent
Once upon a Time in Hollywood 2019.MULTi.Bluray.2160p.HDR.DTS-HDMA.7.1.HEVC-DDR torrent
Turtle.Odyssey.2018.MULTi.UHD.Bluray.2160p.HDR.DTS-HDMA.5.1.HEVC-DDR torrent

ETTV Recommended Cam
Dark Waters 2019 HDCAM x264-ETRG torrent
Blue Story 2019 HDCAM x264 AC3-ETRG torrent
Jay and Silent Bob Reboot 2019 HDCAM x264-ETRG torrent
Jumanji The Next Level 2019 HDCAM x264-ETRG torrent

ETTV Recommended Foreign
Percy Jackson & The Olympians The Lightning Thief (2010) x264 720p BluRay {Dual Audio} [Hindi DD 2.0 + EN 2.0] Exclusive By DREDD torrent
Saaho.2019.1080p.HEVC.NF.WEB-DL.DD+5.1.h265-Telly torrent
Ready or Not 2019 BluRay Dual Audio [Hindi 5.1 + English 5.1] 720p x264 AAC ESub - mkvCinemas [Telly] torrent
2 Lava 2 Lantula! (2016) x264 720p UNCUT BluRay Eng Subs {Dual Audio} [Hindi ORG DD 2.0 + English 2.0] Exclusive By DREDD torrent


Download Torrent "Night Hunter 2019 1080p HDRip x264 [MW]"

IMDB Details
Description:

N/A

Genre:

N/A

Download Torrent (Magnet)
Download Torrent (File)
Seeds: 480
Leechers: 285
Completed: 3,553 
Last Checked: 14-08-2019 13:35:55


Loading...
Details
Title:Night Hunter 2019 1080p HDRip x264 [MW]
Description:




General
Format                                   : Matroska
Format version                           : Version 4
File size                                : 1.56 GiB
Duration                                 : 1 h 36 min
Overall bit rate                         : 2 312 kb/s

Video
ID                                       : 1
Format                                   : AVC
Format/Info                              : Advanced Video Codec
Format profile                           : [email protected]
Format settings                          : CABAC / 4 Ref Frames
Format settings, CABAC                   : Yes
Format settings, Reference frames        : 4 frames
Codec ID                                 : V_MPEG4/ISO/AVC
Duration                                 : 1 h 36 min
Bit rate                                 : 2 100 kb/s
Width                                    : 1 920 pixels
Height                                   : 800 pixels
Display aspect ratio                     : 2.40:1
Frame rate mode                          : Constant
Frame rate                               : 60.000 FPS
Color space                              : YUV
Chroma subsampling                       : 4:2:0
Bit depth                                : 8 bits
Scan type                                : Progressive
Bits/(Pixel*Frame)                       : 0.023
Stream size                              : 1.39 GiB (89%)
Writing library                          : x264 core 157 r2935 545de2f

Audio
ID                                       : 2
Format                                   : AAC LC
Codec ID                                 : A_AAC-2
Duration                                 : 1 h 36 min
Bit rate                                 : 256 kb/s
Channel(s)                               : 2 channels
Channel layout                           : L R
Sampling rate                            : 48.0 kHz
Frame rate                               : 46.875 FPS (1024 SPF)
Compression mode                         : Lossy
Stream size                              : 178 MiB (11%)
Language                                 : English
Default                                  : Yes
Forced                                   : No


Click To View Image

https://pichub.site/image/hYqOZ
https://pichub.site/image/ha4Bg
https://pichub.site/image/hafPI
https://pichub.site/image/haMfX
https://pichub.site/image/haaoJ
https://pichub.site/image/haYh8

Category:Movies > HD 1080p
Lang:English  English
Total Size:1.56 GB
Info Hash:7b7ab107f423d1990716ebc215711e2fc90aa0e7
Added By:MovieFreak
Date Added:14-08-2019 13:35:51

Files

File List: 
 File Size
Night Hunter 2019 1080p HDRip x264 [MW].mkv1.56 GB



Loading...
Comments

There are currently no comments. Be the first one to write something !

Disclaimer: None of the files shown here are actually hosted or transmitted by this server. The links are provided solely by this site's users. The site moderation is also a service provided by the site's users. The administrator of this site (ettv.tv) cannot be held responsible for what its users post, or any other actions of its users. You may not use this site to distribute or download any material when you do not have the legal rights to do so. It is your own responsibility to adhere to these terms.