scary stories to tell in the dark 2019 power s06e04 hobbs and shaw etrg evo the secret life of pets 2 2019 Suits kabir singh suits s09e09 Joker 2019 dream girl  good boys 2019 spider man far from home pearson s01e10 childs play 2019 Anna  toy story 4 ethd godzilla king of the monsters 2019 HINDI pearson greenleaf s04e03 fast furious presents hobbs shaw 2019 American horror story ettv john wick chapter 3 – parabellum 2019 hustlers 2019 mayans mc s02e03 once upon a time in hollywood 2019 bachelor in paradise the challenge s34e04 yesterday 2019 ad astra 2019 aladdin 2019 avengers endgame 2019 wwe xxx Mr Mercedes toy story 4 2019 spiderman ddr spiderman far from home ITA  mr mercedes s03e02 the lion king 2019 basketball wives s08e14 anna 2019 Crawl 2019 fear the walking dead s05e14 spider man far from home 2019 幼女 mayans titans yts etmovies angel has fallen 2019 rambo last blood 2019 american horror story s09e01 it chapter two 2019 Titans s02e02 2.0 (2018) men in black international 2019 0 marvel week far from home Peaky blinders dark phoenix 2019 proper anal 
Warning! Use a VPN When Downloading Torrents!
Your IP Address is 3.93.75.30. Location is United States
Your Internet Provider is tracking your torrent activity! Hide your IP ADDRESS with a VPN!
We strongly recommend using NordVPN to anonymize your torrenting. 30 Day Money Back Guarantee!
Try it Now!
ETTV Recommended TV Shows
Suits.S09E09.HDTV.x264-aAF[ettv] torrent
Deep.Water.UK.S01E06.HDTV.x264-RiVER[ettv] torrent
American.Horror.Story.S09E01.HDTV.x264-SVA[ettv] torrent
The.Outpost.S02E11.WEB.h264-TBS[ettv] torrent

ETTV Recommended SD
Fast.and.Furious.Presents.Hobbs.and.Shaw.2019..HC.HDRip.x264.AC3-ETRG torrent
The.First.King.2019.BDRip.XviD.AC3-EVO torrent
Bloodline.2019.HDRip.XViD-ETRG torrent
Running.with.the.Devil.2019.HDRip.XViD-ETRG torrent

ETTV Recommended HD
Spider-Man Far From Home.2019.MULTi.1080p.BluRay.DTS-HDMA.7.1.HEVC-DDR[EtHD] torrent
Between.Two.Ferns.The.Movie.2019.1080p.NF.WEB-DL.DDP5.1.x264-CMRG[EtHD] torrent
Annabelle.Comes.Home.2019.1080p.BluRay.x264-GECKOS[EtHD] torrent
Anna.2019.MULTi.Blu-ray.1080p.Atmos.7.1.HEVC-DDR[EtHD] torrent

ETTV Recommended UHD
Rough Night.2017.MULTi.UHD.Blu-ray.2160p.HDR.Atmos.7.1.HEVC-DDR torrent
Spider-Man.Far From Home 2019.UHD.2160p.WEB-Rip..HDR.DDP.5.1-DDR[EtHD] torrent
Annabelle.Comes.Home.2019.MULTi.UHD.2160p.HDR.WEB-Rip.DDP.5.1.HEVC-DDR[EtHD] torrent
Angel Heart 1987.MULTi.Blu-ray.2160p.HDR.DTS-HDMA.5.1.HEVC-DDR torrent

ETTV Recommended Cam
Downton Abbey 2019 720p HDCAM-GETB8 torrent
Hustlers 2019 HDCAM x264 AC3-ETRG torrent
Rambo Last Blood 2019 720p NEW HDCAM-GETB8 torrent
Ad Astra 2019 720p HDCAM-GETB8 torrent

ETTV Recommended Foreign
Fast & Furious - Hobbs & Shaw (2019)[720p HC HDRip - HQ Line Auds - [Tamil + Telugu + Hin + Eng] - x264 - 1GB] torrent
Mei (2019)[Tamil - HDRip - x264 - 700MB - ESubs] torrent
The.heretics.(2017).ITA-ENG.Ac3.5.1.sub.ita.spa.BDRip.1080p.X264-BaMax71-iDN CreW torrent
Prassthanam (2019) 720p PreDVD Rip x264 AAC 1.2GB NO LOGO CineVood Exclusive torrent


Download Torrent "Camp Wedding 2019 1080p WEB-DL DD 5.1 x264 [MW]"

IMDB Details
Description:

Mia's destination wedding seems doomed when her bridal party is not too keen on doing all the work to transform a dilapidated summer camp into the venue of her dreams--when they begin to be...

Genre:

Comedy, Horror, Mystery

Download Torrent (Magnet)
Download Torrent (File)
Seeds: 51
Leechers: 26
Completed: 182 
Last Checked: 21-08-2019 11:38:18


Loading...
Details
Title:Camp Wedding 2019 1080p WEB-DL DD 5.1 x264 [MW]
Description:




General
Format                                   : Matroska
Format version                           : Version 4
File size                                : 1.77 GiB
Duration                                 : 1 h 37 min
Overall bit rate                         : 2 602 kb/s

Video
ID                                       : 1
Format                                   : AVC
Format/Info                              : Advanced Video Codec
Format profile                           : [email protected]
Format settings                          : CABAC / 4 Ref Frames
Format settings, CABAC                   : Yes
Format settings, Reference frames        : 4 frames
Codec ID                                 : V_MPEG4/ISO/AVC
Duration                                 : 1 h 37 min
Bit rate                                 : 2 200 kb/s
Width                                    : 1 920 pixels
Height                                   : 810 pixels
Display aspect ratio                     : 2.40:1
Frame rate mode                          : Constant
Frame rate                               : 23.976 (24000/1001) FPS
Color space                              : YUV
Chroma subsampling                       : 4:2:0
Bit depth                                : 8 bits
Scan type                                : Progressive
Bits/(Pixel*Frame)                       : 0.059
Stream size                              : 1.51 GiB (85%)
Writing library                          : x264 core 157 r2935 545de2f

Audio
ID                                       : 2
Format                                   : AC-3
Format/Info                              : Audio Coding 3
Commercial name                          : Dolby Digital
Codec ID                                 : A_AC3
Duration                                 : 1 h 37 min
Bit rate mode                            : Constant
Bit rate                                 : 384 kb/s
Channel(s)                               : 6 channels
Channel layout                           : L R C LFE Ls Rs
Sampling rate                            : 48.0 kHz
Frame rate                               : 31.250 FPS (1536 SPF)
Bit depth                                : 16 bits
Compression mode                         : Lossy
Stream size                              : 267 MiB (15%)
Language                                 : English
Service kind                             : Complete Main
Default                                  : Yes
Forced                                   : No

Text
ID                                       : 3
Format                                   : UTF-8
Codec ID                                 : S_TEXT/UTF8
Codec ID/Info                            : UTF-8 Plain Text
Duration                                 : 1 h 37 min
Bit rate                                 : 107 b/s
Count of elements                        : 1904
Stream size                              : 76.7 KiB (0%)
Language                                 : English
Default                                  : Yes
Forced                                   : No


Click To View Image

https://pichub.site/image/hE1DR
https://pichub.site/image/hE9gs
https://pichub.site/image/hEHnB
https://pichub.site/image/hEFYY
https://pichub.site/image/hEW2t
https://pichub.site/image/hEQt6

Category:Movies > HD 1080p
Lang:English  English
Total Size:1.77 GB
Info Hash:b6cdc69c5710383dadc62130dc2c885c1450a5c0
Added By:MovieFreak
Date Added:21-08-2019 11:38:15

Files

File List: 
 File Size
Camp Wedding 2019 1080p WEB-DL DD 5.1 x264 [MW].mkv1.77 GB



Loading...
Comments

There are currently no comments. Be the first one to write something !

Disclaimer: None of the files shown here are actually hosted or transmitted by this server. The links are provided solely by this site's users. The site moderation is also a service provided by the site's users. The administrator of this site (ettv.tv) cannot be held responsible for what its users post, or any other actions of its users. You may not use this site to distribute or download any material when you do not have the legal rights to do so. It is your own responsibility to adhere to these terms.