prodigal son the addams family 2019 this is us s04e05 greenleaf s04e08 the flash s06e03 Arrow s08e02 hustlers 2019 rambo last blood 2019 south park hindi it chapter two 2019 titans marvel week mr mercedes xxx new amsterdam This IS Us mayans fbi joker 2019 yts spider man far from home 2019 godfather of harlem s01e04 the good doctor s03e05 etmovies el camino a breaking bad movie 2019 gemini man 2019 the walking dead war of the worlds new amsterdam s02e05 once upon a time in hollywood 2019 treadstone joker watchmen ddr supergirl angel has fallen 2019 the irishman 2019 fbi s02e05 the walking dead s10e03 Castle Rock the neighborhood s02e05 mayans mc s02e08 the deuce ncis arrow the purge s02e02 scary stories to tell in the dark 2019 ncis new orleans s06e05 fast furious presents hobbs shaw 2019 prodigal son s01e05 ettv etrg evo dublin murders ethd Flash The Flash maleficent mistress of evil 2019 mr mercedes s03e07 ncis s17e05 batwoman the lion king 2019 watchmen s01e01 Mr Robot emergence treadstone s01e02 Batwoman s01e03 zombieland double tap 2019 the good doctor 
Warning! Use a VPN,When Downloading Torrents!
Your IP Address is 18.210.22.132. Location is United States
Your Internet Provider is tracking your torrent activity! Hide your IP ADDRESS with a VPN!
We strongly recommend using ExpressVPN to anonymize your torrenting. 30 Day Money Back Guarantee!
Try it Now!
ETTV Recommended TV Shows
NCIS.New.Orleans.S06E05.HDTV.x264-KILLERS[ettv] torrent
New.Amsterdam.2018.S02E05.HDTV.x264-KILLERS[ettv] torrent
NCIS.S17E05.HDTV.x264-SVA[ettv] torrent
The.Flash.2014.S06E03.HDTV.x264-SVA[ettv] torrent
Arrow.S08E02.HDTV.x264-SVA[ettv] torrent
FBI.S02E05.HDTV.x264-SVA[ettv] torrent
This.Is.Us.S04E05.HDTV.x264-KILLERS[ettv] torrent
Treadstone.S01E02.HDTV.x264-SVA[ettv] torrent

ETTV Recommended SD
The.Kitchen.2019.BRRip.XViD-ETRG torrent
Them.That.Follow.2019.HDRip.XViD-ETRG torrent
The.Dead.Center.2019.BRRip.XviD.AC3-EVO torrent
The.Art.of.Racing.in.the.Rain.2019.DVDRip.XviD.AC3-EVO[EtMovies] torrent

ETTV Recommended HD
Satanic.Panic.2019.BluRay.1080p.DTS-HD.MA5.1.HEVC-DDR[EtHD] torrent
Dauntless.The.Battle.of.Midway.2019.BluRay.1080p.DTS-HD.MA5.1.HEVC-DDR[EtHD] torrent
Bloodline.2018.BluRay.1080p.DTS-HD.MA5.1.HEVC-DDR[EtHD] torrent
The.Wheel.2019.1080p.WEB-DL.H264.AC3-EVO[EtHD] torrent

ETTV Recommended UHD
Fast.and.Furious.Presents.Hobbs.and.Shaw.2019.2160p.WEB-Rip.HDR.DDP5.1.HEVC-DDR[EtHD] torrent
Kill.Chain.2019.2160p.SDR.AMZN.WEB-Rip.DDP.5.1.HEVC-DDR[EtHD] torrent
Edward Scissorhands1990.2160p.WEB-Rip.SDR.DDP5.1.HEVC-DDR[EtHD] torrent
Night.At.The.Museum.2006.2160p.WEB-Rip.SDR.DTS-HD.MA.5.1.HEVC-DDR[EtHD] torrent

ETTV Recommended Cam
Joker.2019.HDTS.x264.AC3-ETRG torrent
The Lighthouse 2019 720p HDCAM-GETB8 torrent
Jojo Rabbit 2019 720p HDCAM-GETB8 torrent
Maleficent Mistress of Evil 2019  HDCAM x264-ETRG torrent

ETTV Recommended Foreign
Buddies In India (2017) x264 720p WEB-DL {Dual Audio} [Hindi ORG DD 2.0 + Chinese 2.0] Exclusive By DREDD torrent
Lhomme.fidele.2018.1080p.AMZN.WEB-DL.DDP5.1.H.264-NTG[EtHD] torrent
The Witch : Part 1 - The Subversion (2018) 720p BluRay x264 Eng Subs [Dual Audio] [Hindi DD 2.0 - Korean 2.0] Exclusive By -=!Dr.STAR!=- torrent
Stonados (2013) 720p BluRay x264 Eng Subs [Dual Audio] [Hindi DD 2.0 - English 2.0] Exclusive By -=!Dr.STAR!=- torrent


Download Torrent "The Outpost S02E07 Where You Go People Die 1080p AMZN WEBrip x265 DDP5.1 D0..."

IMDB Details
Description:

Talon, the lone survivor of the Blackbloods, sets off to track her family's killers, and discovers her supernatural powers, which she must learn to harness.

Genre:

Action, Fantasy

Download Torrent (Magnet)
Download Torrent (File)
Seeds: 86
Leechers: 33
Completed: 852 
Last Checked: 24-08-2019 01:07:52


Details
Title:The Outpost S02E07 Where You Go People Die 1080p AMZN WEBrip x265 DDP5.1 D0...
Description:





Media Information

General
Unique ID                                : 113054756887895812431859943789457364562 (0x550D8DDDBAE3486926D9B225AD44D652)
Complete name                            : The Outpost S02E07 Where You Go People Die 1080p AMZN WEBrip x265 DDP5.1 D0ct0rLew[SEV].mkv
Format                                   : Matroska
Format version                           : Version 4
File size                                : 1.80 GiB
Duration                                 : 42 min 30 s
Overall bit rate                         : 6 059 kb/s
Encoded date                             : UTC 2019-08-23 23:17:12
Writing application                      : mkvmerge v29.0.0 ('Like It Or Not') 64-bit
Writing library                          : libebml v1.3.6 + libmatroska v1.4.9

Video
ID                                       : 2
Format                                   : HEVC
Format/Info                              : High Efficiency Video Coding
Format profile                           : Main [email protected]@Main
Codec ID                                 : V_MPEGH/ISO/HEVC
Duration                                 : 42 min 30 s
Bit rate                                 : 5 417 kb/s
Width                                    : 1 920 pixels
Height                                   : 1 080 pixels
Display aspect ratio                     : 16:9
Frame rate mode                          : Constant
Frame rate                               : 23.976 (24000/1001) FPS
Color space                              : YUV
Chroma subsampling                       : 4:2:0
Bit depth                                : 10 bits
Bits/(Pixel*Frame)                       : 0.109
Stream size                              : 1.61 GiB (89%)
Writing library                          : x265 3.1+11-de920e0a3183:[Windows][MSVC 1922][64 bit] 10bit
Encoding settings                        : cpuid=1111039 / frame-threads=3 / numa-pools=8 / wpp / no-pmode / no-pme / no-psnr / no-ssim / log-level=2 / input-csp=1 / input-res=1920x1080 / interlace=0 / total-frames=61139 / level-idc=0 / high-tier=1 / uhd-bd=0 / ref=4 / no-allow-non-conformance / no-repeat-headers / annexb / no-aud / no-hrd / info / hash=0 / no-temporal-layers / open-gop / min-keyint=23 / keyint=250 / gop-lookahead=0 / bframes=16 / b-adapt=2 / b-pyramid / bframe-bias=0 / rc-lookahead=90 / lookahead-slices=4 / scenecut=40 / radl=0 / no-splice / no-intra-refresh / ctu=64 / min-cu-size=8 / no-rect / no-amp / max-tu-size=32 / tu-inter-depth=4 / tu-intra-depth=4 / limit-tu=0 / rdoq-level=2 / dynamic-rd=0.00 / no-ssim-rd / signhide / no-tskip / nr-intra=0 / nr-inter=0 / no-constrained-intra / no-strong-intra-smoothing / max-merge=3 / limit-refs=3 / limit-modes / me=3 / subme=7 / merange=92 / temporal-mvp / no-hme / weightp / no-weightb / no-analyze-src-pics / deblock=0:0 / no-sao / no-sao-non-deblock / rd=4 / no-early-skip / rskip / no-fast-intra / no-tskip-fast / no-cu-lossless / no-b-intra / no-splitrd-skip / rdpenalty=0 / psy-rd=1.10 / psy-rdoq=1.00 / no-rd-refine / no-lossless / cbqpoffs=0 / crqpoffs=0 / rc=crf / crf=19.8 / qcomp=0.60 / qpstep=4 / stats-write=0 / stats-read=0 / ipratio=1.40 / pbratio=1.30 / aq-mode=3 / aq-strength=0.90 / cutree / zone-count=0 / no-strict-cbr / qg-size=32 / no-rc-grain / qpmax=69 / qpmin=0 / no-const-vbv / sar=0 / overscan=0 / videoformat=5 / range=0 / colorprim=2 / transfer=2 / colormatrix=2 / chromaloc=0 / display-window=0cll=0,0 / min-luma=0 / max-luma=1023 / log2-max-poc-lsb=8 / vui-timing-info / vui-hrd-info / slices=1 / no-opt-qp-pps / no-opt-ref-list-length-pps / no-multi-pass-opt-rps / scenecut-bias=0.05 / no-opt-cu-delta-qp / no-aq-motion / no-hdr / no-hdr-opt / no-dhdr10-opt / no-idr-recovery-sei / analysis-reuse-level=5 / scale-factor=0 / refine-intra=0 / refine-inter=0 / refine-mv=0 / refine-ctu-distortion=0 / no-limit-sao / ctu-info=0 / no-lowpass-dct / refine-analysis-type=0 / copy-pic=1 / max-ausize-factor=1.0 / no-dynamic-refine / no-single-sei / no-hevc-aq / no-svt / no-field / qp-adaptation-range=1.00
Default                                  : Yes
Forced                                   : No

Audio
ID                                       : 3
Format                                   : E-AC-3
Format/Info                              : Enhanced AC-3
Commercial name                          : Dolby Digital Plus
Codec ID                                 : A_EAC3
Duration                                 : 42 min 30 s
Bit rate mode                            : Constant
Bit rate                                 : 640 kb/s
Channel(s)                               : 6 channels
Channel layout                           : L R C LFE Ls Rs
Sampling rate                            : 48.0 kHz
Frame rate                               : 31.250 FPS (1536 SPF)
Compression mode                         : Lossy
Stream size                              : 195 MiB (11%)
Language                                 : English
Service kind                             : Complete Main
Default                                  : Yes
Forced                                   : No

Text
ID                                       : 1
Format                                   : UTF-8
Codec ID                                 : S_TEXT/UTF8
Codec ID/Info                            : UTF-8 Plain Text
Duration                                 : 42 min 22 s
Bit rate                                 : 69 b/s
Count of elements                        : 610
Stream size                              : 21.7 KiB (0%)
Language                                 : English
Default                                  : Yes
Forced                                   : No

We have no issue with individuals posting or re-uploading our torrents on a platform we aren't on. However, if this is something you'd like to do, please do so in a 'as-is' format. We ask that you do not create a new torrent, include all descriptions you see above including the SEV logo, tags, notes and screenshots.
If you'd like to become a permanent poster on a website we don't post to, feel free to get in contact with a Sublime Encoded Video member.

We are recruiting/training new members for SEV & seedbox providers as well as people to help out with subtitles.
As you already know, we deliver quality, so you know the standard.
If you're interested, feel free to contact any of the team members.

Category:TV > HEVC/x265
Lang:English  English
Total Size:1.80 GB
Info Hash:5d05895b776a67cd54862e1b85f6fae29b92f2b0
Added By:D0ct0rLew
Date Added:24-08-2019 01:07:48

  

Files

File List: 
 File Size
The Outpost S02E07 Where You Go People Die 1080p AMZN WEBrip x265 DDP5.1 D0ct0rLew[SEV].mkv1.80 GB



Loading...
Comments

There are currently no comments. Be the first one to write something !

Disclaimer: None of the files shown here are actually hosted or transmitted by this server. The links are provided solely by this site's users. The site moderation is also a service provided by the site's users. The administrator of this site (ettv.tv) cannot be held responsible for what its users post, or any other actions of its users. You may not use this site to distribute or download any material when you do not have the legal rights to do so. It is your own responsibility to adhere to these terms.