homeland Doctor Who Yts manifest S02E07 Bull S04E15 ddr picard ncis All Rise S01E16 Good Girls S03E01 etrg The Outsider S01E07 Prodigal Son S01E15 knives out Outlander s05e01 Bad Boys for Life 2020 The Good Doctor S03E15 parasite 2019 birds of prey (and the fantabulous emancipation of one harley quinn) 2020 Frozen II 2019 evo jumanji the next level 2019 The Bachelor S24E08 The Gentlemen 2020 the outsider yts Family Guy s18e11 Midway 2019 vikings jumanji 0 Dolittle 2020 Jojo Rabbit 2019 homeland s08e02 1917 2019 sonic the hedgehog 2020 star wars etmovies batwoman avenue 5 s01e05 bull the good doctor Joker 2019 supergirl NCIS Los Angeles S11E14 ford v ferrari 2019 outlander Manifest Hindi prodigal son Endeavour supergirl s05e12 Star Trek Picard S01E04 Ettv The Neighborhood S02E16 Underwater 2020 xxx Fantasy Island 2020 rq.mp4 nascar knives out 2019 parasite WWE Avenue 5 charlies angels 2019 Terminator Dark Fate 2019 Star Wars The Rise of Skywalker 2019 9-1-1 Lone Star S01E06 the gentlemen 2019 21 bridges 2019 batwoman s01e12 ethd 
Warning! Use a V.P.N when Downloading Torrents!
Your IP Address is 3.233.215.231. Location is United States
Your Internet Provider is tracking your torrent activity! Hide your IP ADDRESS with a V.P.N!
We strongly recommend using ExpressVP-N to anonymize your torrenting. 30 Day Money Back Guarantee!
Try it Now!
ETTV Recommended TV Shows
The.Resident.S03E15.WEB.x264-XLF[ettv] torrent
FBI.S02E16.HDTV.x264-KILLERS[ettv] torrent
This.Is.Us.S04E14.HDTV.x264-KILLERS[ettv] torrent
New.Amsterdam.2018.S02E14.HDTV.x264-KILLERS[ettv] torrent

ETTV Recommended SD
A.Prayer.For.The.Damned.2019.HDRip.XviD.AC3-EVO torrent
Clown.Fear.2020.HDRip.XviD.AC3-EVO torrent
The.Dustwalker.2020.HDRip.XviD.AC3-EVO torrent
Villains.2019.BRRip.XviD.AC3-EVO torrent

ETTV Recommended HD
Hollywould.2019.1080p.WEB-DL.H264.AC3-EVO[EtHD] torrent
Dark.Waters.2019.1080p.AMZN.WEB-DL.DDP5.1.H.264-NTG[EtHD] torrent
Chop.Chop.Chang.Operation.C.H.I.M.P.2019.1080p.AMZN.WEB-DL.DDP2.0.H.264-TEPES[EtHD] torrent
The.Dustwalker.2020.1080p.WEB-DL.H264.AC3-EVO[EtHD] torrent

ETTV Recommended UHD
Frozen.II.2019.2160p.UHD.BluRay.x265-TERMiNAL torrent
Rogue.One.A.Star Wars Story 2016.4K.HDR.2160p.WEBDL Ita Eng x265-NAHOM torrent
Abominable.2019.4K.HDR.2160p.BDRip Ita Eng x265-NAHOM torrent
Star.Wars.The.Last.Jedi.2017.BDRip.UHD.HDR.Eng.Spa.TrueHD.ETRG torrent

ETTV Recommended Cam
Fantasy Island 2020 HDCAM x264-ETRG torrent
The Photograph 2020 720p HDCAM-C1NEM4 torrent
Emma 2020 720p HDCAM-C1NEM4 torrent
Sonic the Hedgehog.2020.READNFO.HDCAM.x264-ETRG torrent

ETTV Recommended Foreign
Sacrifice (2020) HDRip 720p [Hindi-Dub] Dual-Audio x264 - 1XCinema torrent
Valhalla.2019.NORDiC.1080p.WEB-DL.H.264-RAPiDCOWS[EtHD] torrent
Liberation.2019.HDRip.1080p.x264.AAC.Mandarin.HC.CHI-ENG.Mp4Ba torrent
Ringu 1998.4K.REMASTERED.BDRip 1080p Ita Jap x265-NAHOM torrent


Download Torrent "Bubble Gum 2011 Hindi 1080p WEB-DL x264 AAC { TaRa }.mkv"

IMDB Details
Description:

A teenager faces interfering parents, a sibling, and a rival for the girl he loves.

Genre:

Drama

Download Torrent (Magnet)
Download Torrent (File)
Seeds: 239
Leechers: 251
Completed: 1,025 
Last Checked: 25-08-2019 05:00:51


Loading...
Details
Title:Bubble Gum 2011 Hindi 1080p WEB-DL x264 AAC { TaRa }.mkv
Description:

Bubble Gum 2011 Hindi 1080p WEB-DL x264 AAC { TaRa }.mkv


===================================================================
General
Complete name               : Bubble Gum 2011 Hindi 1080p WEB-DL x264 AAC { TaRa }.mkv
Format                      : Matroska
Format version              : Version 4
File size                   : 1.65 GiB
Duration                    : 1 h 56 min
Overall bit rate            : 2 028 kb/s
===================================================================
Video
ID                          : 1
Format                      : AVC
Format/Info                 : Advanced Video Codec
Format profile              : [email protected]
Format settings             : CABAC / 4 Ref Frames
Format settings, CABAC      : Yes
Format settings, Reference  : 4 frames
Codec ID                    : V_MPEG4/ISO/AVC
Duration                    : 1 h 56 min
Bit rate                    : 1 900 kb/s
Width                       : 1 920 pixels
Height                      : 816 pixels
Display aspect ratio        : 2.35:1
Frame rate mode             : Constant
Frame rate                  : 24.000 FPS
Color space                 : YUV
Chroma subsampling          : 4:2:0
Bit depth                   : 8 bits
Scan type                   : Progressive
Bits/(Pixel*Frame)          : 0.051
Stream size                 : 1.52 GiB (92%)
Title                       : .....::::: TaRa :::::.....
Language                    : Hindi
Default                     : Yes
Forced                      : No
===================================================================
Audio
ID                          : 2
Format                      : AAC LC
Format/Info                 : Advanced Audio Codec Low Complexity
Codec ID                    : A_AAC-2
Duration                    : 1 h 56 min
Bit rate                    : 161 kb/s
Channel(s)                  : 2 channels
Channel layout              : L R
Sampling rate               : 48.0 kHz
Frame rate                  : 46.875 FPS (1024 SPF)
Compression mode            : Lossy
Delay relative to video     : -64 ms
Stream size                 : 134 MiB (8%)
Title                       : .....::::: TaRa :::::.....
Language                    : Hindi
Default                     : Yes
Forced                      : No
===================================================================




































Category:Movies > Bollywood
Lang:Hindi  Hindi
Total Size:1.65 GB
Info Hash:691d162436d289fe3af38279a3039b7434568ec3
Added By:Sk3yTara
Date Added:25-08-2019 05:00:42

  

Files

File List: 
 File Size
Bubble Gum 2011 Hindi 1080p WEB-DL x264 AAC { TaRa }.mkv1.65 GB
Nv1LwQk.jpg151.22 kB
Torrent TaRa Digital Team PC Info.nfo6.53 kB
Torrent TaRa Digital Team.txt702.00 B



Loading...
Comments

There are currently no comments. Be the first one to write something !

Disclaimer: None of the files shown here are actually hosted or transmitted by this server. The links are provided solely by this site's users. The site moderation is also a service provided by the site's users. The administrator of this site (ettv.tv) cannot be held responsible for what its users post, or any other actions of its users. You may not use this site to distribute or download any material when you do not have the legal rights to do so. It is your own responsibility to adhere to these terms.