prodigal son the addams family 2019 this is us s04e05 greenleaf s04e08 the flash s06e03 Arrow s08e02 hustlers 2019 rambo last blood 2019 south park hindi it chapter two 2019 titans marvel week mr mercedes xxx new amsterdam This IS Us mayans fbi joker 2019 yts spider man far from home 2019 godfather of harlem s01e04 the good doctor s03e05 etmovies el camino a breaking bad movie 2019 gemini man 2019 the walking dead war of the worlds new amsterdam s02e05 once upon a time in hollywood 2019 treadstone joker watchmen ddr supergirl angel has fallen 2019 the irishman 2019 fbi s02e05 the walking dead s10e03 Castle Rock the neighborhood s02e05 mayans mc s02e08 the deuce ncis arrow the purge s02e02 scary stories to tell in the dark 2019 ncis new orleans s06e05 fast furious presents hobbs shaw 2019 prodigal son s01e05 ettv etrg evo dublin murders ethd Flash The Flash maleficent mistress of evil 2019 mr mercedes s03e07 ncis s17e05 batwoman the lion king 2019 watchmen s01e01 Mr Robot emergence treadstone s01e02 Batwoman s01e03 zombieland double tap 2019 the good doctor 
Warning! Use a VPN,When Downloading Torrents!
Your IP Address is 18.210.22.132. Location is United States
Your Internet Provider is tracking your torrent activity! Hide your IP ADDRESS with a VPN!
We strongly recommend using ExpressVPN to anonymize your torrenting. 30 Day Money Back Guarantee!
Try it Now!
ETTV Recommended TV Shows
NCIS.New.Orleans.S06E05.HDTV.x264-KILLERS[ettv] torrent
New.Amsterdam.2018.S02E05.HDTV.x264-KILLERS[ettv] torrent
NCIS.S17E05.HDTV.x264-SVA[ettv] torrent
The.Flash.2014.S06E03.HDTV.x264-SVA[ettv] torrent
Arrow.S08E02.HDTV.x264-SVA[ettv] torrent
FBI.S02E05.HDTV.x264-SVA[ettv] torrent
This.Is.Us.S04E05.HDTV.x264-KILLERS[ettv] torrent
Treadstone.S01E02.HDTV.x264-SVA[ettv] torrent

ETTV Recommended SD
The.Kitchen.2019.BRRip.XViD-ETRG torrent
Them.That.Follow.2019.HDRip.XViD-ETRG torrent
The.Dead.Center.2019.BRRip.XviD.AC3-EVO torrent
The.Art.of.Racing.in.the.Rain.2019.DVDRip.XviD.AC3-EVO[EtMovies] torrent

ETTV Recommended HD
Satanic.Panic.2019.BluRay.1080p.DTS-HD.MA5.1.HEVC-DDR[EtHD] torrent
Dauntless.The.Battle.of.Midway.2019.BluRay.1080p.DTS-HD.MA5.1.HEVC-DDR[EtHD] torrent
Bloodline.2018.BluRay.1080p.DTS-HD.MA5.1.HEVC-DDR[EtHD] torrent
The.Wheel.2019.1080p.WEB-DL.H264.AC3-EVO[EtHD] torrent

ETTV Recommended UHD
Fast.and.Furious.Presents.Hobbs.and.Shaw.2019.2160p.WEB-Rip.HDR.DDP5.1.HEVC-DDR[EtHD] torrent
Kill.Chain.2019.2160p.SDR.AMZN.WEB-Rip.DDP.5.1.HEVC-DDR[EtHD] torrent
Edward Scissorhands1990.2160p.WEB-Rip.SDR.DDP5.1.HEVC-DDR[EtHD] torrent
Night.At.The.Museum.2006.2160p.WEB-Rip.SDR.DTS-HD.MA.5.1.HEVC-DDR[EtHD] torrent

ETTV Recommended Cam
Joker.2019.HDTS.x264.AC3-ETRG torrent
The Lighthouse 2019 720p HDCAM-GETB8 torrent
Jojo Rabbit 2019 720p HDCAM-GETB8 torrent
Maleficent Mistress of Evil 2019  HDCAM x264-ETRG torrent

ETTV Recommended Foreign
Buddies In India (2017) x264 720p WEB-DL {Dual Audio} [Hindi ORG DD 2.0 + Chinese 2.0] Exclusive By DREDD torrent
Lhomme.fidele.2018.1080p.AMZN.WEB-DL.DDP5.1.H.264-NTG[EtHD] torrent
The Witch : Part 1 - The Subversion (2018) 720p BluRay x264 Eng Subs [Dual Audio] [Hindi DD 2.0 - Korean 2.0] Exclusive By -=!Dr.STAR!=- torrent
Stonados (2013) 720p BluRay x264 Eng Subs [Dual Audio] [Hindi DD 2.0 - English 2.0] Exclusive By -=!Dr.STAR!=- torrent


Download Torrent "Metamorphosis.2019.Korean.720p.HDRip.H264.AAC-[Mkvking]"

IMDB Details
Description:

Gang-Goo (Sung Dong-Il) and Myung-Joo (Jang Young-Nam) are married and they have three children: Sun-Woo ([Kim Hye-Jun]]), Hyun-Joo (Cho Yi-Hyun) and Woo-Jong (Kim Kang-Hoon). They move into a new home, but bizarre and terrifying things happen to the family. The devil transforms into one of the family members. Oldest child Sun-Woo calls her uncle Joong-Soo (Bae Sung-Woo) for help. Joong-Soo is a Catholic priest, who performs exorcisms.

Genre:

Drama, Horror

Download Torrent (Magnet)
Download Torrent (File)
Seeds: 74
Leechers: 14
Completed: 498 
Last Checked: 17-09-2019 13:12:33


Details
Title:Metamorphosis.2019.Korean.720p.HDRip.H264.AAC-[Mkvking]
Description:
FILE INFORMATION

Movie Title ..: Metamorphosis
Aka Title ....: 변신 (byeon-sin)
Actor/Actress : Bae Sung-woo, Sung Dong-il, Jang Young-nam
Format File ..: mkv, mp4
Quality ......: HDRip x264
Audio ........: 2CH AAC Korean
File Size ....:720p (995MB)
Runtime ......: 1h 43min
Encoder.......: Mkvking

ScreenShot :


Media Info : 
Format                         : Matroska
Format version                 : Version 4 / Version 2
File size                      : 995 MiB
Duration                       : 1 h 52 min
Overall bit rate               : 1 232 kb/s
Movie name                     : [Mkvking.com]
Encoded date                   : UTC 2019-09-17 10:19:51
Writing application            : mkvmerge v37.0.0 ('Leave It') 64-bit
Writing library                : libebml v1.3.9 + libmatroska v1.5.2
Attachments                    : mkvking.png

Video
ID                             : 1
Format                         : AVC
Format/Info                    : Advanced Video Codec
Format profile                 : [email protected]
Format settings, CABAC         : Yes
Format settings, RefFrames     : 4 frames
Codec ID                       : V_MPEG4/ISO/AVC
Duration                       : 1 h 52 min
Bit rate                       : 1 102 kb/s
Nominal bit rate               : 1 250 kb/s
Width                          : 1 280 pixels
Height                         : 720 pixels
Display aspect ratio           : 16:9
Frame rate mode                : Constant
Frame rate                     : 23.976 (24000/1001) FPS
Color space                    : YUV
Chroma subsampling             : 4:2:0
Bit depth                      : 8 bits
Scan type                      : Progressive
Bits/(Pixel*Frame)             : 0.050
Stream size                    : 890 MiB (89%)
Title                          : [Mkvking.com]
Writing library                : x264 core 148 r2748 97eaef2
Encoding settings              : cabac=1 / ref=1 / deblock=1:0:0 / analyse=0x3:0x113 / me=hex / subme=2 / psy=1 / psy_rd=1.00:0.00 / mixed_ref=0 / me_range=16 / chroma_me=1 / trellis=0 / 8x8dct=1 / cqm=0 / deadzone=21,11 / fast_pskip=1 / chroma_qp_offset=0 / threads=12 / lookahead_threads=4 / sliced_threads=0 / nr=0 / decimate=1 / interlaced=0 / bluray_compat=0 / constrained_intra=0 / bframes=3 / b_pyramid=2 / b_adapt=1 / b_bias=0 / direct=1 / weightb=1 / open_gop=0 / weightp=1 / keyint=240 / keyint_min=23 / scenecut=40 / intra_refresh=0 / rc_lookahead=10 / rc=abr / mbtree=1 / bitrate=1250 / ratetol=1.0 / qcomp=0.60 / qpmin=20 / qpmax=34 / qpstep=4 / vbv_maxrate=1450 / vbv_bufsize=3000 / nal_hrd=none / filler=0 / ip_ratio=1.40 / aq=1:1.00
Default                        : Yes
Forced                         : No

Audio
ID                             : 2
Format                         : AAC
Format/Info                    : Advanced Audio Codec
Format profile                 : LC
Codec ID                       : A_AAC
Duration                       : 1 h 52 min
Bit rate                       : 128 kb/s
Channel(s)                     : 2 channels
Channel positions              : Front: L R
Sampling rate                  : 44.1 kHz
Frame rate                     : 43.066 FPS (1024 SPF)
Compression mode               : Lossy
Delay relative to video        : -23 ms
Stream size                    : 104 MiB (10%)
Title                          : [Mkvking.com]
Default                        : Yes
Forced                         : No

Text
ID                             : 3
Format                         : UTF-8
Codec ID                       : S_TEXT/UTF8
Codec ID/Info                  : UTF-8 Plain Text
Duration                       : 1 min 2 s
Bit rate                       : 13 b/s
Count of elements              : 1
Stream size                    : 104 Bytes (0%)
Default                        : Yes
Forced                         : No
Category:Movies > HD 720p
Lang:Korean  Korean
Total Size:995 MB
Info Hash:378fa24ec2fe84d02efee6356a0c0baacdd5a97a
Added By:khenzo
Date Added:17-09-2019 13:12:30

  

Files

File List: 
 File Size
Metamorphosis.2019.720p.FHDRip.H264.AAC-[Mkvking.com].mkv995 MB
mkvking.com.txt97.00 B



Loading...
Comments

<< Previous      Next >>
1 - 1

[Report] Posted: 19-09-2019 at 11:33:23
KoreanSub


Where can I download subtitles?

1 - 1
<< Previous      Next >>


Disclaimer: None of the files shown here are actually hosted or transmitted by this server. The links are provided solely by this site's users. The site moderation is also a service provided by the site's users. The administrator of this site (ettv.tv) cannot be held responsible for what its users post, or any other actions of its users. You may not use this site to distribute or download any material when you do not have the legal rights to do so. It is your own responsibility to adhere to these terms.