f1 2019 ready or not 2019 south park ad astra 2019 proper power s06e07 batwoman s01e02 F1 the walking dead s10e02 xxx power s06e08 fast furious presents hobbs shaw 2019 the lion king 2019 etmovies ethd Once Upon a Time in Hollywood supernatural Formula1 Lion King ufc The Flash avengers endgame 2019 the addams family None el camino aladdin 2019 萝莉 evo the walking dead The Blacklist S07E02 ddr supernatural s15e01 the irishman 2019 joker 2019 it chapter two 2019 spider man far from home 2019 once upon a time in hollywood 2019 0 power Mr Robot 幼女 godfather of harlem s01e03 titans s02e06 ettv UFC Fight Night 161 crawl 2019 哪吒之魔童降世 el camino a breaking bad movie 2019 gemini man 2019 anna 2019 AD ASTRA 阿拉善 stuber 2019 FORMULA Greys Anatomy HINDI etrg hustlers 2019 scary stories to tell in the dark 2019 formula 1 the lion king rambo last blood 2019 yts abominable 2019 joker angel has fallen 2019 dark phoenix 2019 big bang theory español The Blacklist  zombieland double tap 2019 titans toy story 4 2019 
Warning! Use a VPN,When Downloading Torrents!
Your IP Address is 18.210.22.132. Location is United States
Your Internet Provider is tracking your torrent activity! Hide your IP ADDRESS with a VPN!
We strongly recommend using ExpressVPN to anonymize your torrenting. 30 Day Money Back Guarantee!
Try it Now!
ETTV Recommended TV Shows
Supergirl.S05E02.HDTV.x264-KILLERS[ettv] torrent
NCIS.Los.Angeles.S11E03.HDTV.x264-SVA[ettv] torrent
Batwoman.S01E02.HDTV.x264-SVA[ettv] torrent
The.Rookie.S02E03.HDTV.x264-KILLERS[ettv] torrent

ETTV Recommended SD
The Angry Birds Movie 2.2019.HC.HDRip.XviD.AC3-EVO[EtMovies] torrent
Fractured.2019.HDRip.XviD.AC3-EVO torrent
Water.2019.HDRip.XviD.AC3-EVO torrent
Robbery.2018.HDRip.XviD.AC3-EVO torrent

ETTV Recommended HD
The.Post.2017.BDRip.x264.Multilang.DTS.DD5.1.Gerald torrent
The Angry Birds Movie 2.2019.1080p.HC.HDRip.X264.AC3-EVO[EtHD] torrent
Fast.and.Furious.Presents.Hobbs.and.Shaw.2019.1080p.WEB-DL.H264.AC3-EVO[EtHD] torrent
The.Lion.King.2019.BRRip.1080p.x264.Multilang.TrueHD.DD5.1.Gerald torrent

ETTV Recommended UHD
Shaft.2019.MULTi.UHD.BluRay.2160p.HDR.TrueHD.Atmos.7.1.HEVC-DDR torrent
Scarface.1983.MULTi.UHD.Blu-ray.2160p.HDR.DTS-X.7.1.HEVC-DDR torrent
Hellboy 2004.MULTi.UHD.Blu-ray.2160p.HDR.Atmos.7.1.HEVC-DDR torrent
The.Death.and.Return.of.Superman.2019.MULTi.UHD.Blu-ray.2160p.HDR.DTS-HDMA.5.1.HEVC-DDR torrent

ETTV Recommended Cam
Zombieland Double Tap 2019 720p HDCAM-GETB8 torrent
The Addams Family 2019 720p HDCAM-GETB8 torrent
Dora and the Lost City of Gold 2019 720p NEW HDCAM-GETB8 torrent
Joker.2019.HDTS.x264.AC3-ETRG torrent

ETTV Recommended Foreign
Black Cobra (2012) x264 720p UNRATED BluRay Eng Subs {Dual Audio} [Hindi ORG DD 2.0 + English 2.0] Exclusive By DREDD torrent
Christmas Trade (2015) UNCUT 720p WEBRip x264 Eng Subs [Dual Audio] [Hindi DD 2.0 - English 5.1] Exclusive By -=!Dr.STAR!=- torrent
Sharmaji Ki Lag Gai (2019) Hindi 720p HDRip x264 AAC 1.3GB - MovCr torrent
War.2019.Hindi.1CD.Pre.Rip.XviD.MP3.Multi.SuB.DusIcTv torrent


Download Torrent "Highway To Heaven DVDrip S03E01E02 A Special Love Part 1"

IMDB Details
Description:

N/A

Genre:

N/A

Download Torrent (Magnet)
Download Torrent (File)
Seeds: 29
Leechers: 0
Completed: 25 
Last Checked: 11-10-2019 04:56:07


Loading...
Details
Title:Highway To Heaven DVDrip S03E01E02 A Special Love Part 1
Description:
Release: Highway To Heaven DVDrip S03E01E02 A Special Love Part 1



IMDB: https://www.imdb.com/title/tt0086730

Plot: A probationary angel, sent back to Earth, teams with an ex-cop to help people. Serie with Michael Landon.

General
Complete name                            : Highway To Heaven DVDrip S03E01E02 A Special Love Part 1
Format                                   : AVI
Format/Info                              : Audio Video Interleave
File size                                : 400 MiB
Duration                                 : 45mn 4s
Overall bit rate                         : 1 240 Kbps

Video
ID                                       : 0
Format                                   : MPEG-4 Visual
Format settings, BVOP                    : 1
Format settings, QPel                    : No
Format settings, GMC                     : No warppoints
Format settings, Matrix                  : Default (H.263)
Muxing mode                              : Packed bitstream
Codec ID                                 : DX50
Codec ID/Hint                            : DivX 5
Duration                                 : 45mn 4s
Bit rate                                 : 1 101 Kbps
Width                                    : 672 pixels
Height                                   : 488 pixels
Display aspect ratio                     : 1.377
Frame rate                               : 29.970 fps
Color space                              : YUV
Chroma subsampling                       : 4:2:0
Bit depth                                : 8 bits
Scan type                                : Progressive
Compression mode                         : Lossy
Bits/(Pixel*Frame)                       : 0.112
Stream size                              : 355 MiB (89%)
Title                                    : Video 
Writing library                          : DivX 6.6.1.4

Audio
ID                                       : 1
Format                                   : MPEG Audio
Format version                           : Version 1
Format profile                           : Layer 3
Mode                                     : Dual mono
Codec ID                                 : 55
Codec ID/Hint                            : MP3
Duration                                 : 45mn 4s
Bit rate mode                            : Constant
Bit rate                                 : 128 Kbps
Channel count                            : 2 channels
Sampling rate                            : 48.0 KHz
Compression mode                         : Lossy
Stream size                              : 41.3 MiB (10%)
Alignment                                : Split accross interleaves
Interleave, duration                     : 33 ms (1.00 video frame)
Interleave, preload duration             : 500 ms
Title                                    : Audio


SCREENSHOTS:




Category:TV > SD/XVID
Lang:English  English
Total Size:400 MB
Info Hash:8cea0797d7281a581eca4759225958cae47c0a87
Added By:artsubs
Date Added:11-10-2019 04:56:04

  

Files

File List: 
 File Size
Highway To Heaven DVDrip S03E01E02 A Special Love Part 1.avi400 MB



Loading...
Comments

There are currently no comments. Be the first one to write something !

Disclaimer: None of the files shown here are actually hosted or transmitted by this server. The links are provided solely by this site's users. The site moderation is also a service provided by the site's users. The administrator of this site (ettv.tv) cannot be held responsible for what its users post, or any other actions of its users. You may not use this site to distribute or download any material when you do not have the legal rights to do so. It is your own responsibility to adhere to these terms.