gemini man 2019 the flash ford v ferrari 2019 rq.mp4 arrow español Batwoman s01e09 frozen ii 2019 yts zombieland double tap 2019 watchmen s01e08 ettv The Flash s00e05 Rick and Morty s04e04 terminator dark fate 2019 ad astra 2019 castle rock the flash s06e09 etrg Crisis on Infinite Earths Supergirl s05e09 doctor sleep 2019 flash s06e09 Emergence S01E09 emergence joker The Flash s00e05 720p queen slim 2019 Batwoman s00e01 mr robot ethd ddr angel has fallen 2019 rick and morty Watchmen 21 bridges 2019 the mandalorian s01e05 FROZEN 2 ad astra jumanji the next level 2019 see treadstone s01e09 crisis the curse of oak island the purge s02e09 evo flash treadstone once upon a time in hollywood 2019 wwe arrow black lightning s03e09 batwoman the purge black lightning the mandalorian his dark materials hustlers 2019 hindi proper knives out 2019 ncis rambo last blood 2019 mandalorian silicon valley the curse of oak island s07e06 Vikings etmovies supergirl XXX oak island joker 2019 the irishman 2019 
Warning! Use a V.P.N when Downloading Torrents!
Your IP Address is 18.210.23.15. Location is United States
Your Internet Provider is tracking your torrent activity! Hide your IP ADDRESS with a V.P.N!
We strongly recommend using ExpressVP-N to anonymize your torrenting. 30 Day Money Back Guarantee!
Try it Now!
ETTV Recommended TV Shows
Treadstone.S01E09.iNTERNAL.WEB.h264-TRUMP[ettv] torrent
The.Purge.S02E09.WEBRip.x264-TBS[ettv] torrent
Emergence.S01E09.HDTV.x264-SVA[ettv] torrent
The.Flash.2014.S06E09.WEB.h264-TRUMP[ettv] torrent

ETTV Recommended SD
The.Final.Level.Escaping.Rancala.2019.HDRip.XviD.AC3-EVO torrent
5.Galaxies.2019.HDRip.XviD.AC3-EVO torrent
The.Room.2019.HDRip.XviD.AC3-EVO[EtMovies] torrent
Take.Home.Pay.2019.HDRip.XviD.AC3-EVO[EtMovies] torrent

ETTV Recommended HD
Killerman.2019.1080p.BluRay.X264-AMIABLE[EtHD] torrent
Animals.2019.1080p.WEB-DL.H264.AC3-EVO[EtHD] torrent
John.Wick.Chapter.2.2017.BDRip.1080p.HEVC.HDR.TrueHD.DD5.1.Gerald torrent
The.Room.2019.1080p.WEB-DL.x264.AAC-ETRG torrent

ETTV Recommended UHD
10 Things I Hate About You 1999.UHD.2160p.HDR.WEBRip.DTS-HD MA 5.1.HEVC-DDR torrent
Pirates of the Caribbean - The Curse of the Black Pearl 2003.MULTi.UHD.2160p.HDR.WEBRip.DTS-HD MA 5.1.HEVC-DDR torrent
The Report 2019.UHD.2160p.HDR.WEBRip.DDP.5.1.HEVC-DDR torrent
The Muppet Christmas Carol 1992.UHD.2160p.HDR.WEBRip.DTS-HDMA.5.1.HEVC-DDR torrent

ETTV Recommended Cam
Dark Waters 2019 HDCAM x264-ETRG torrent
Blue Story 2019 HDCAM x264 AC3-ETRG torrent
Jay and Silent Bob Reboot 2019 HDCAM x264-ETRG torrent
Jumanji.The.Next.Level.2019.NEW.HDCAM.x264.AC3-ETRG torrent

ETTV Recommended Foreign
The Sky Is Pink (2019) Hindi 720p HDRip x264 AAC ESubs - Downloadhub torrent
Raid.2019.Hindi.Zee5.1080p.WEB-DL.x264.AAC.Esub -DDR[EtHD] torrent
The Pineville Heist (2016) 720p WEBRip x264 [Dual Audio] [Hindi 2.0 - English 2.0] Exclusive By -=!Dr.STAR!=- torrent
War 2019.MULTi.Bluray.1080p.Atmos.7.1.HEVC-DDR torrent


Download Torrent "The Mandalorian (2019) S01E01 Chapter One (1080p DSNYP Webrip x265 10bit EA..."

IMDB Details
Description:

The travails of a lone gunfighter in the outer reaches of the galaxy, far from the authority of the New Republic.

Genre:

Action, Adventure, Sci-Fi

Download Torrent (Magnet)
Download Torrent (File)
Seeds: 14,847
Leechers: 1,829
Completed: 274,927 
Last Checked: 12-11-2019 12:33:36


Loading...
Details
Title:The Mandalorian (2019) S01E01 Chapter One (1080p DSNYP Webrip x265 10bit EA...
Description:




Media Information

Unique ID                                : 234707001515299644497450987799232098536 (0xB092EC9AD545F462296C26C999E7B0E8)
Complete name                            : The Mandalorian (2019) S01E01 Chapter One (1080p DSNYP Webrip x265 10bit EAC3 5.1 Atmos - Goki).mkv
Format                                   : Matroska
Format version                           : Version 4
File size                                : 823 MiB
Duration                                 : 38 min 46 s
Overall bit rate                         : 2 968 kb/s
Movie name                               : The Mandalorian (2019) S01E01 Chapter One (1080p DSNYP Webrip x265 10bit EAC3 5.1 Atmos - Goki).mkv
Encoded date                             : UTC 2019-11-12 12:17:41
Writing application                      : mkvmerge v28.2.0 ('The Awakening') 64-bit
Writing library                          : libebml v1.3.6 + libmatroska v1.4.9

Video
ID                                       : 1
Format                                   : HEVC
Format/Info                              : High Efficiency Video Coding
Format profile                           : Main [email protected]@Main
Codec ID                                 : V_MPEGH/ISO/HEVC
Duration                                 : 38 min 46 s
Bit rate                                 : 2 198 kb/s
Width                                    : 1 920 pixels
Height                                   : 1 080 pixels
Display aspect ratio                     : 16:9
Frame rate mode                          : Constant
Frame rate                               : 23.976 (24000/1001) FPS
Color space                              : YUV
Chroma subsampling                       : 4:2:0
Bit depth                                : 10 bits
Bits/(Pixel*Frame)                       : 0.044
Stream size                              : 609 MiB (74%)
Writing library                          : x265 2.9+8-27d8424c799d:[Windows][MSVC 1915][64 bit] 10bit
Encoding settings                        : cpuid=1111039 / frame-threads=2 / numa-pools=6 / wpp / no-pmode / no-pme / no-psnr / no-ssim / log-level=2 / input-csp=1 / input-res=1920x1080 / interlace=0 / total-frames=0 / level-idc=0 / high-tier=1 / uhd-bd=0 / ref=4 / no-allow-non-conformance / no-repeat-headers / annexb / no-aud / no-hrd / info / hash=0 / no-temporal-layers / open-gop / min-keyint=23 / keyint=250 / gop-lookahead=0 / bframes=8 / b-adapt=2 / b-pyramid / bframe-bias=0 / rc-lookahead=100 / lookahead-slices=4 / scenecut=40 / radl=0 / no-intra-refresh / ctu=64 / min-cu-size=8 / no-rect / no-amp / max-tu-size=32 / tu-inter-depth=1 / tu-intra-depth=1 / limit-tu=0 / rdoq-level=2 / dynamic-rd=0.00 / no-ssim-rd / signhide / no-tskip / nr-intra=0 / nr-inter=0 / no-constrained-intra / no-strong-intra-smoothing / max-merge=3 / limit-refs=3 / limit-modes / me=3 / subme=5 / merange=57 / temporal-mvp / weightp / no-weightb / no-analyze-src-pics / deblock=0:0 / sao / no-sao-non-deblock / rd=4 / no-early-skip / rskip / no-fast-intra / no-tskip-fast / no-cu-lossless / no-b-intra / no-splitrd-skip / rdpenalty=0 / psy-rd=1.30 / psy-rdoq=2.00 / no-rd-refine / no-lossless / cbqpoffs=0 / crqpoffs=0 / rc=crf / crf=20.0 / qcomp=0.60 / qpstep=4 / stats-write=0 / stats-read=0 / ipratio=1.40 / pbratio=1.30 / aq-mode=2 / aq-strength=1.10 / cutree / zone-count=0 / no-strict-cbr / qg-size=32 / no-rc-grain / qpmax=69 / qpmin=0 / no-const-vbv / sar=1 / overscan=0 / videoformat=5 / range=0 / colorprim=2 / transfer=2 / colormatrix=2 / chromaloc=0 / display-window=0 / max-cll=0,0 / min-luma=0 / max-luma=1023 / log2-max-poc-lsb=8 / vui-timing-info / vui-hrd-info / slices=1 / no-opt-qp-pps / no-opt-ref-list-length-pps / no-multi-pass-opt-rps / scenecut-bias=0.05 / no-opt-cu-delta-qp / no-aq-motion / no-hdr / no-hdr-opt / no-dhdr10-opt / no-idr-recovery-sei / analysis-reuse-level=5 / scale-factor=0 / refine-intra=0 / refine-inter=0 / refine-mv=0 / no-limit-sao / ctu-info=0 / no-lowpass-dct / refine-mv-type=0 / copy-pic=1 / max-ausize-factor=1.0 / no-dynamic-refine / no-single-sei
Default                                  : Yes
Forced                                   : No

Audio
ID                                       : 2
Format                                   : E-AC-3 JOC
Format/Info                              : Enhanced AC-3 with Joint Object Coding
Commercial name                          : Dolby Digital Plus with Dolby Atmos
Codec ID                                 : A_EAC3
Duration                                 : 38 min 46 s
Bit rate mode                            : Constant
Bit rate                                 : 768 kb/s
Channel(s)                               : 6 channels
Channel layout                           : L R C LFE Ls Rs
Sampling rate                            : 48.0 kHz
Frame rate                               : 31.250 FPS (1536 SPF)
Compression mode                         : Lossy
Stream size                              : 213 MiB (26%)
Language                                 : English
Service kind                             : Complete Main
Default                                  : Yes
Forced                                   : No
Complexity index                         : 16
Number of dynamic objects                : 15
Bed channel count                        : 1 channel
Bed channel configuration                : LFE

Text #1
ID                                       : 3
Format                                   : UTF-8
Codec ID                                 : S_TEXT/UTF8
Codec ID/Info                            : UTF-8 Plain Text
Duration                                 : 35 min 34 s
Bit rate                                 : 41 b/s
Count of elements                        : 428
Stream size                              : 10.9 KiB (0%)
Language                                 : English
Default                                  : No
Forced                                   : No

Text #2
ID                                       : 4
Format                                   : UTF-8
Codec ID                                 : S_TEXT/UTF8
Codec ID/Info                            : UTF-8 Plain Text
Duration                                 : 34 min 54 s
Bit rate                                 : 29 b/s
Count of elements                        : 288
Stream size                              : 7.63 KiB (0%)
Language                                 : English
Default                                  : No
Forced                                   : No

Text #3
ID                                       : 5
Format                                   : UTF-8
Codec ID                                 : S_TEXT/UTF8
Codec ID/Info                            : UTF-8 Plain Text
Duration                                 : 37 min 54 s
Bit rate                                 : 26 b/s
Count of elements                        : 282
Stream size                              : 7.30 KiB (0%)
Language                                 : French
Default                                  : No
Forced                                   : No

Text #4
ID                                       : 6
Format                                   : UTF-8
Codec ID                                 : S_TEXT/UTF8
Codec ID/Info                            : UTF-8 Plain Text
Duration                                 : 37 min 54 s
Bit rate                                 : 28 b/s
Count of elements                        : 289
Stream size                              : 7.80 KiB (0%)
Language                                 : German
Default                                  : No
Forced                                   : No

Text #5
ID                                       : 7
Format                                   : UTF-8
Codec ID                                 : S_TEXT/UTF8
Codec ID/Info                            : UTF-8 Plain Text
Duration                                 : 37 min 54 s
Bit rate                                 : 27 b/s
Count of elements                        : 295
Stream size                              : 7.70 KiB (0%)
Language                                 : Italian
Default                                  : No
Forced                                   : No

Text #6
ID                                       : 8
Format                                   : UTF-8
Codec ID                                 : S_TEXT/UTF8
Codec ID/Info                            : UTF-8 Plain Text
Duration                                 : 37 min 54 s
Bit rate                                 : 28 b/s
Count of elements                        : 295
Stream size                              : 7.94 KiB (0%)
Language                                 : Portuguese
Default                                  : No
Forced                                   : No

Text #7
ID                                       : 9
Format                                   : UTF-8
Codec ID                                 : S_TEXT/UTF8
Codec ID/Info                            : UTF-8 Plain Text
Duration                                 : 37 min 54 s
Bit rate                                 : 27 b/s
Count of elements                        : 295
Stream size                              : 7.57 KiB (0%)
Language                                 : Spanish
Default                                  : No
Forced                                   : No

Source
1080p DSNYP WEB-DL DEFLATE
44413732437970271137547904352507395014 (0x2169C612CDDE862B69222AC35FFBFBC6)

.........................................................................................................................................

Category:TV > HEVC/x265
Lang:English  English
Total Size:823 MB
Info Hash:e8ead5180cc5344793d79dff092a67058431c9f2
Added By:Goki
Date Added:12-11-2019 12:33:28

  

Files

File List: 
 File Size
The Mandalorian (2019) S01E01 Chapter One (1080p DSNYP Webrip x265 10bit EAC3 5.1 Atmos - Goki).mkv823 MB



Loading...
Comments

<< Previous      Next >>
1 - 3

[Report] Posted: 12-11-2019 at 12:52:50
nanfang


thank you

[Report] Posted: 12-11-2019 at 14:43:09
PapaBill


Thank You.
Finally a show about Boba Fett

[Report] Posted: 14-11-2019 at 03:40:26
zakaria88


thank you

1 - 3
<< Previous      Next >>


Disclaimer: None of the files shown here are actually hosted or transmitted by this server. The links are provided solely by this site's users. The site moderation is also a service provided by the site's users. The administrator of this site (ettv.tv) cannot be held responsible for what its users post, or any other actions of its users. You may not use this site to distribute or download any material when you do not have the legal rights to do so. It is your own responsibility to adhere to these terms.