Supergirl S05E17 the banker 2020 Contagion 2011 etmovies picard the invisible man 2020 The Gentlemen 2020 God Friended Me S02E18 The Walking Dead S10E14 Jumanji The Next Level 2019 ethd NCIS New Orleans S06E18 ncis BETTER CALL SAUL bad boys for life Greys Anatomy The Walking Dead  a quiet place part ii 2020 Ozark s03e03 Westworld s03e02 homeland s08e08 tiger king 1917 2019 star wars the rise of skywalker 2019 xxx Vivarium 2020 American Idol S18E09 Spenser Confidential 2020 outlander Ozark s03e01 Underwater 2020 ettv Westworld s03e03 720p Bloodshot 2020 The Call of the Wild 2020 Tiger King Murder, Mayhem and Madness S01E01 hindi Star Trek Picard S01E10 Last Week Tonight with John Oliver S07E06 evo yts batwoman Better Call Saul S05E07 Bad Boys for Life 2020 Ozark S03E05 rq.mp4 Bloodshot ddr etrg Onward 2020 Knives Out 2019 Birds of Prey (and the Fantabulous Emancipation of One Harley Quinn) 2020 frozen ii 2019 The Platform 2019 The Way Back 2020 Fantasy Island 2020 westworld s03e03 homeland supergirl Westworld The Blacklist S07E12 Ozark s03e04 outlander s05e07 The Gentlemen 2019 good girls s03e07 ozark The Hunt 2020 NCIS Los Angeles s11e19 sonic the hedgehog 2020 Ozark s03e02 the real housewives of atlanta s12e20 dolittle 2020 
Warning! Use a V.P.N when Downloading Torrents!
Your IP Address is 3.235.66.217. Location is United States
Your Internet Provider is tracking your torrent activity! Hide your IP ADDRESS with a V.P.N!
We strongly recommend using ExpressVP-N to anonymize your torrenting. 30 Day Money Back Guarantee!
Try it Now!
ETTV Recommended TV Shows
9-1-1.S03E13.WEB.H264-iNSiDiOUS[ettv] torrent
Prodigal.Son.S01E18.WEBRip.x264-XLF[ettv] torrent
The.Plot.Against.America.S01E03.WEBRip.x264-XLF[ettv] torrent
Manifest.S02E12.HDTV.x264-SVA[ettv] torrent

ETTV Recommended SD
Escape from Pretoria.2020.BRRip.XviD-ETRG torrent
Bad.Boys.for.Life.2020..AMZN.HDRip.XViD-ETRG torrent
Sonic.the.Hedgehog.2020.AMZN.HDRip.XViD-ETRG torrent
Light.From.Light.2019.HDRip.XViD-ETRG torrent

ETTV Recommended HD
Bad Boys for Life.2020.1080p.WEB-DL.H264.AC3-EVO[EtHD] torrent
Escape.from.Pretoria.2020.LIMITED.1080p.BluRay.x264-DRONES[EtHD] torrent
Sonic.the.Hedgehog.2020.1080p.AMZN.WEB-DL.DDP5.1.H.264-TEPES[EtHD] torrent
Locusts.2019.1080p.WEB-DL.H264.AC3-EVO[EtHD] torrent

ETTV Recommended UHD
Star.Wars.Episode.III.Revenge.of.the.Sith.2005.MULTi.UHD.2160p.HDR.Atmos.7.1.HEVC-DDR.mkv torrent
Bloodshot.2020.2160p.HDR.WEB-Rip.DDP5.1.HEVC-DDR.mkv torrent
Onward.2020.2160p.HDR.WEB-Rip.DD5.1.HEVC-DDR.mkv torrent
Black And Blue 2020.MULTi.UHD.2160p.HDR.DTS-HDMA..5.1.HEVC-DDR.mkv torrent

ETTV Recommended Cam
My Spy 2020 HDCAM x264 AC3-ETRG torrent
The Hunt 2020 HDCAM x264 AC3-ETRG torrent
The Burnt Orange Heresy 2020 720p HDCAM-C1NEM4 torrent
Fantasy Island 2020 UNRATED HDTS XViD AC3-ETRG torrent

ETTV Recommended Foreign
Bloodshot (2020) ITA-ENG Ac3 5.1 WEBRip 1080p H264 [ArMor] torrent
The Black Hole (2006) 720p WEBRip x264 Eng Subs [Dual Audio] [Hindi DD 2.0 - English 2.0] Exclusive By -=!Dr.STAR!=- torrent
Justin and the Knights of Valour (2013) 720p BluRay x264 Eng Subs [Dual Audio] [Hindi DD 2.0 - English 2.0] Exclusive By -=!Dr.STAR!=- torrent
Cut (2000) 720p BluRay x264 Eng Subs [Dual Audio] [Hindi DD 2.0 - English 2.0] Exclusive By -=!Dr.STAR!=- torrent


Download Torrent "A Wrinkle In Time 2018 x264 720p Esub BluRay Dual Audio English Hindi GOPIS..."

IMDB Details
Description:

After the disappearance of her scientist father, three peculiar beings send Meg, her brother, and her friend to space in order to find him.

Genre:

Adventure, Family, Fantasy, Sci-Fi

Download Torrent (Magnet)
Seeds: 408
Leechers: 250
Completed: 946 
Last Checked: 27-12-2019 10:12:33


Loading...
Details
Title:A Wrinkle In Time 2018 x264 720p Esub BluRay Dual Audio English Hindi GOPIS...
Description:
https://www.gopisahi.in/



A Wrinkle In Time 2018 x264 720p Esub BluRay Dual Audio English Hindi GOPISAHI

Format                         : Matroska
Format version                 : Version 4
File size                      : 977 MiB
Duration                       : 1 h 49 min
Overall bit rate               : 1 246 kb/s
Movie name                     : A Wrinkle in Time 2018 GOPISAHI

Video
Format                         : AVC
Format/Info                    : Advanced Video Codec
Format profile                 : [email protected]
Format settings                : CABAC / 4 Ref Frames
Format settings, CABAC         : Yes
Format settings, Reference fra : 4 frames
Codec ID                       : V_MPEG4/ISO/AVC
Duration                       : 1 h 49 min
Bit rate                       : 1 050 kb/s
Width                          : 1 280 pixels
Height                         : 534 pixels
Display aspect ratio           : 2.40:1
Original display aspect ratio  : 2.40:1
Frame rate mode                : Constant
Frame rate                     : 23.976 (24000/1001) FPS
Color space                    : YUV
Chroma subsampling             : 4:2:0
Bit depth                      : 8 bits
Scan type                      : Progressive
Bits/(Pixel*Frame)             : 0.064
Stream size                    : 823 MiB (84%)
Title                          : GOPISAHI
Writing library                : x264 core 152

Audio #1
Format                         : AAC LC
Duration                       : 1 h 49 min
Bit rate                       : 96.0 kb/s
Channel(s)                     : 2 channels
Channel layout                 : L R
Sampling rate                  : 48.0 kHz
Frame rate                     : 46.875 FPS (1024 SPF)
Compression mode               : Lossy
Stream size                    : 75.7 MiB (8%)
Title                          : GOPISAHI
Language                       : Hindi
Default                        : Yes
Forced                         : No

Audio #2
Format                         : AAC LC
Format/Info                    : Advanced Audio Codec Low Complexity
Codec ID                       : A_AAC-2
Duration                       : 1 h 49 min
Bit rate                       : 96.0 kb/s
Channel(s)                     : 2 channels
Channel layout                 : L R
Sampling rate                  : 48.0 kHz
Frame rate                     : 46.875 FPS (1024 SPF)
Compression mode               : Lossy
Stream size                    : 75.5 MiB (8%)
Title                          : GOPISAHI
Language                       : English

Text
Language                       : English






Category:Movies > Dubs/Dual Audio
Lang:Hindi  Hindi
Total Size:977 MB
Info Hash:a3fb4133fee3b8bb4bcf1990e7aea3112d6dfd1d
Added By:GOPISAHI
Date Added:27-12-2019 10:12:31

Files

File List: 
 File Size
A Wrinkle In Time 2018 x264 720p Esub BluRay Dual Audio English Hindi GOPISAHI.mkv977 MB



Comments

There are currently no comments. Be the first one to write something !

Disclaimer: None of the files shown here are actually hosted or transmitted by this server. The links are provided solely by this site's users. The site moderation is also a service provided by the site's users. The administrator of this site (ettv.tv) cannot be held responsible for what its users post, or any other actions of its users. You may not use this site to distribute or download any material when you do not have the legal rights to do so. It is your own responsibility to adhere to these terms.