A Fall From Grace 2020 rq.mp4 Manifest S02E03 the good doctor Avenue 5 S01E01 Bad Boys for Life 2020 ddr etrg vikings s06e07 knives out 2019 Prodigal Son S01E11 xxx Manifest just mercy 2019 the outsider terminator dark fate 2019 Motherless Brooklyn 2019 Little Women 2019 Maleficent Mistress of Evil 2019 all rise s01e13 Star Wars The Rise of Skywalker 2019 9-1-1 Lone Star S01E01 underwater 2020 etmovies Jumanji The Next Level 2019 21 Bridges 2019 prodigal son Black Lightning S03E10 doctor sleep Doctor Who gemini man 2019 Parasite 2019 0 The Good Doctor S03E12 Jojo Rabbit 2019 The Outsider S01E01 the outsider s01e03 Once Upon a Time... in Hollywood 2019 Uncut Gems 2019 The Neighborhood S02E13 Bull S04E12 Charlies Angels 2019 Dolittle 2020 supergirl all rise 1917 2019 The Gentlemen 2020 evo 9-1-1 Lone Star S01E02 ettv power s06e13 Supergirl S05E10 Richard Jewell 2019 Frozen II 2019 curb your enthusiasm s10e01 Batwoman s01e10 shameless s10e11 Wwe Ray Donovan S07E10 The New Pope Joker 2019 bombshell 2019 Hindi ethd midway 2019 batwoman black lightning The Bachelor S24E03 yts like a boss 2020 vikings Ford v Ferrari 2019 
Warning! Use a V.P.N when Downloading Torrents!
Your IP Address is 3.227.2.246. Location is United States
Your Internet Provider is tracking your torrent activity! Hide your IP ADDRESS with a V.P.N!
We strongly recommend using ExpressVP-N to anonymize your torrenting. 30 Day Money Back Guarantee!
Try it Now!
ETTV Recommended TV Shows
9-1-1.Lone.Star.S01E02.WEB.x264-XLF[ettv] torrent
All.Rise.S01E13.WEB.x264-XLF[ettv] torrent
The.Bachelor.S24E03.WEB.H264-XLF[ettv] torrent
Black.Lightning.S03E10.WEB.H264-XLF[ettv] torrent

ETTV Recommended SD
Kindred.Spirits.2019.HDRip.XviD.AC3-EVO torrent
The.Good.Liar.2019.HDRip.XviD.AC3-EVO torrent
Playing.with.Fire.2019.HDRip.XviD.AC3-EVO torrent
Just.Mercy.2019..DVDScr.XvId.AC3-ETRG torrent

ETTV Recommended HD
Playing.with.Fire.2019.720p.WEB-DL.x264.AAC-ETRG torrent
The.Good.Liar.2019.720p.WEB-DL.x264.AAC-ETRG torrent
Doctor.Sleep.2019.Directors.Cut.720p.AMZN.WEB-DL.x264-ETRG torrent
Just.Mercy.2019.720P.DVDScr.X264.AC3.HQ.Hive-CM8[EtHD] torrent

ETTV Recommended UHD
Togo 2019.4K.HDR.2160p.WEBDL Sub Ita x265-NAHOM torrent
The.Witcher.S01.2160p.HDR.NF.WEBRip.DDP.Atmos.5.1.x265-TrollUHD torrent
Troop.Zero.2020.2160p.NF.WEBRip.DDP5.1.x264-AJP69 torrent
Pan's.Labyrinth.2006.4K.HDR.2160p.BDRip Ita Spa x265-NAHOM torrent

ETTV Recommended Cam
Dolittle 2020 HDCAM x264 AC3-ETRG torrent
Seberg 2019 HDCAM x264 AC3-ETRG torrent
The Grudge 2020 720p HDTC-GETB8 torrent
Bad Boys for Life 2020 HDCAM x264 AC3-ETRG torrent

ETTV Recommended Foreign
Dear Comrade 2019 Hindi 720p WEBRip AAC x264 - MoviePirate - Telly.mkv torrent
Black and Blue (2019).720p.H264.ita.eng.Ac3-5.1.sub.ita.eng-MIRCrew torrent
Motichoor.Chaknachoor.2019.1080p.NF.WEB-DL.DD+5.1.x264-Telly torrent
KD (A) Karuppudurai.2019.1080p.NF.WEB-DL.DD+5.1.x264-Telly torrent


Download Torrent "Blade Runner 2049 2017 1080p 10bit BluRay x265 HEVC [Hindi DD2.0 - English ..."

IMDB Details
Description:

N/A

Genre:

N/A

Download Torrent (Magnet)
Download Torrent (File)
Seeds: 488
Leechers: 1,309
Completed: 780 
Last Checked: 15-01-2020 05:03:38


Loading...
Details
Title:Blade Runner 2049 2017 1080p 10bit BluRay x265 HEVC [Hindi DD2.0 - English ...
Description:



****************************
_____ _ _ 
|_ _|___ | || | _ _ 
| | / _ \| || || | | |
| || __/| || || |_| |
|_| \___||_||_| \__, |
|___/ 
****************************
Team Telly Proudly Presents
****************************
------------------
|Media Info|
------------------
General
Unique ID                                : 248633015720083263085909519437727176525 (0xBB0CFA1D949508679118B355D79E974D)
Complete name                            : H:\Encoded\Source\Blade Runner 2049 2017 1080p 10bit BluRay x265 HEVC [Hindi DD2.0 - English 7.1] ESub - MoviePirate - Telly.mkv
Format                                   : Matroska
Format version                           : Version 4
File size                                : 3.32 GiB
Duration                                 : 2 h 43 min
Overall bit rate                         : 2 905 kb/s
Movie name                               : MoviePirate.Site | Blade Runner 2049 2017 1080p 10bit BluRay x265 HEVC [Hindi DD2.0 - English 7.1] ESub - MoviePirate - Telly
Encoded date                             : UTC 2020-01-15 03:50:21
Writing application                      : mkvmerge v42.0.0 ('Overtime') 64-bit
Writing library                          : libebml v1.3.10 + libmatroska v1.5.2
Cover                                    : Yes
Attachments                              : cover.jpg / small_cover.jpg / cover_land.jpg / small_cover_land.jpg

Video
ID                                       : 1
Format                                   : HEVC
Format/Info                              : High Efficiency Video Coding
Format profile                           : Main [email protected]@Main
Codec ID                                 : V_MPEGH/ISO/HEVC
Duration                                 : 2 h 43 min
Bit rate                                 : 2 416 kb/s
Width                                    : 1 920 pixels
Height                                   : 800 pixels
Display aspect ratio                     : 2.40:1
Frame rate mode                          : Constant
Frame rate                               : 23.976 (24000/1001) FPS
Color space                              : YUV
Chroma subsampling                       : 4:2:0
Bit depth                                : 10 bits
Bits/(Pixel*Frame)                       : 0.066
Stream size                              : 2.76 GiB (83%)
Title                                    : MoviePirate.Site
Writing library                          : x265 3.2+9-971180b100f8:[Windows][GCC 9.2.0][64 bit] 10bit
Encoding settings                        : cpuid=1111039 / frame-threads=5 / numa-pools=32 / wpp / no-pmode / no-pme / no-psnr / no-ssim / log-level=2 / input-csp=1 / input-res=1920x800 / interlace=0 / total-frames=235632 / level-idc=51 / high-tier=1 / uhd-bd=0 / ref=2 / no-allow-non-conformance / no-repeat-headers / annexb / no-aud / no-hrd / info / hash=0 / no-temporal-layers / open-gop / min-keyint=23 / keyint=250 / gop-lookahead=0 / bframes=4 / b-adapt=0 / b-pyramid / bframe-bias=0 / rc-lookahead=15 / lookahead-slices=5 / scenecut=40 / radl=0 / no-splice / no-intra-refresh / ctu=64 / min-cu-size=8 / no-rect / no-amp / max-tu-size=32 / tu-inter-depth=1 / tu-intra-depth=1 / limit-tu=0 / rdoq-level=0 / dynamic-rd=0.00 / no-ssim-rd / signhide / no-tskip / nr-intra=0 / nr-inter=0 / no-constrained-intra / strong-intra-smoothing / max-merge=2 / limit-refs=3 / no-limit-modes / me=1 / subme=2 / merange=57 / temporal-mvp / no-frame-dup / no-hme / weightp / no-weightb / no-analyze-src-pics / deblock=0:0 / sao / no-sao-non-deblock / rd=2 / selective-sao=4 / early-skip / rskip / fast-intra / no-tskip-fast / no-cu-lossless / no-b-intra / no-splitrd-skip / rdpenalty=0 / psy-rd=2.00 / psy-rdoq=0.00 / no-rd-refine / no-lossless / cbqpoffs=0 / crqpoffs=0 / rc=abr / bitrate=2400 / qcomp=0.60 / qpstep=4 / stats-write=0 / stats-read=0 / ipratio=1.40 / pbratio=1.30 / aq-mode=2 / aq-strength=1.00 / cutree / zone-count=0 / no-strict-cbr / qg-size=32 / no-rc-grain / qpmax=69 / qpmin=0 / no-const-vbv / sar=0 / overscan=0 / videoformat=5 / range=0 / colorprim=2 / transfer=2 / colormatrix=2 / chromaloc=0 / display-window=0 / cll=0,0 / min-luma=0 / max-luma=1023 / log2-max-poc-lsb=8 / vui-timing-info / vui-hrd-info / slices=1 / no-opt-qp-pps / no-opt-ref-list-length-pps / no-multi-pass-opt-rps / scenecut-bias=0.05 / no-opt-cu-delta-qp / no-aq-motion / no-hdr / no-hdr-opt / no-dhdr10-opt / no-idr-recovery-sei / analysis-reuse-level=5 / scale-factor=0 / refine-intra=0 / refine-inter=0 / refine-mv=1 / refine-ctu-distortion=0 / no-limit-sao / ctu-info=0 / no-lowpass-dct / refine-analysis-type=0 / copy-pic=1 / max-ausize-factor=1.0 / no-dynamic-refine / no-single-sei / no-hevc-aq / no-svt / no-field / qp-adaptation-range=1.00
Default                                  : Yes
Forced                                   : No

Audio #1
ID                                       : 2
Format                                   : AAC LC SBR
Format/Info                              : Advanced Audio Codec Low Complexity with Spectral Band Replication
Commercial name                          : HE-AAC
Format settings                          : Explicit
Codec ID                                 : A_AAC-2
Duration                                 : 2 h 43 min
Bit rate                                 : 256 kb/s
Channel(s)                               : 8 channels
Channel layout                           : C L R Ls Rs Lb Rb LFE
Sampling rate                            : 48.0 kHz
Frame rate                               : 23.438 FPS (2048 SPF)
Compression mode                         : Lossy
Stream size                              : 300 MiB (9%)
Title                                    : MoviePirate.Site
Language                                 : English
Default                                  : Yes
Forced                                   : No

Audio #2
ID                                       : 5
Format                                   : AC-3
Format/Info                              : Audio Coding 3
Commercial name                          : Dolby Digital
Codec ID                                 : A_AC3
Duration                                 : 2 h 43 min
Bit rate mode                            : Constant
Bit rate                                 : 224 kb/s
Channel(s)                               : 2 channels
Channel layout                           : L R
Sampling rate                            : 48.0 kHz
Frame rate                               : 31.250 FPS (1536 SPF)
Compression mode                         : Lossy
Delay relative to video                  : 14 s 130 ms
Stream size                              : 262 MiB (8%)
Title                                    : MoviePirate.Site
Language                                 : Hindi
Service kind                             : Complete Main
Default                                  : No
Forced                                   : No

Text #1
ID                                       : 3
Format                                   : PGS
Muxing mode                              : zlib
Codec ID                                 : S_HDMV/PGS
Codec ID/Info                            : Picture based subtitle format used on BDs/HD-DVDs
Duration                                 : 2 h 29 min
Bit rate                                 : 21.2 kb/s
Count of elements                        : 2716
Stream size                              : 22.7 MiB (1%)
Title                                    : MoviePirate.Site
Language                                 : English
Default                                  : No
Forced                                   : No

Text #2
ID                                       : 4
Format                                   : UTF-8
Codec ID                                 : S_TEXT/UTF8
Codec ID/Info                            : UTF-8 Plain Text
Duration                                 : 2 h 32 min
Bit rate                                 : 34 b/s
Count of elements                        : 1359
Stream size                              : 38.5 KiB (0%)
Title                                    : MoviePirate.Site
Language                                 : English
Default                                  : Yes
Forced                                   : No

Menu
00:00:00.000                             : en:Chapter 01
00:12:50.269                             : en:Chapter 02
00:23:43.380                             : en:Chapter 03
00:37:14.857                             : en:Chapter 04
00:43:04.248                             : en:Chapter 05
00:49:38.600                             : en:Chapter 06
00:58:49.609                             : en:Chapter 07
01:04:24.485                             : en:Chapter 08
01:16:01.014                             : en:Chapter 09
01:25:26.412                             : en:Chapter 10
01:36:29.158                             : en:Chapter 11
01:51:08.953                             : en:Chapter 12
02:01:50.761                             : en:Chapter 13
02:08:54.476                             : en:Chapter 14
02:16:56.583                             : en:Chapter 15
02:28:00.913                             : en:Chapter 16
****************************
Telly.cc
Team Telly Official Site
****************************
[size=29]www.MoviePirate.Site[/size]
Enjoy Exclusives Content only on Telly.cc


Category:Movies > Dubs/Dual Audio
Lang:Hindi  Hindi
Total Size:3.32 GB
Info Hash:7c9ac8b72f5510a7a5747481b277e261eae6a416
Added By:uploader6969
Date Added:15-01-2020 05:03:36

  

Files

File List: 
 File Size
Blade Runner 2049 2017 1080p 10bit BluRay x265 HEVC [Hindi DD2.0 - English 7.1] ESub - MoviePirate - Telly.mkv3.32 GB



Loading...
Comments

There are currently no comments. Be the first one to write something !

Disclaimer: None of the files shown here are actually hosted or transmitted by this server. The links are provided solely by this site's users. The site moderation is also a service provided by the site's users. The administrator of this site (ettv.tv) cannot be held responsible for what its users post, or any other actions of its users. You may not use this site to distribute or download any material when you do not have the legal rights to do so. It is your own responsibility to adhere to these terms.