jumanji etrg modern family Picard Joker 2019 The Flash S06E12 For Life S01E02 star wars xxx parasite frozen ii 2019 ddr wwe star wars the rise of skywalker 2019 The Outsider S01E07 ethd the outsider homeland s08e02 ettv fbi s02e16 etmovies Star Trek picard s01e05 Hindi rq.mp4 birds of prey (and the fantabulous emancipation of one harley quinn) 2020 Midway 2019 aew legends of tomorrow Underwater 2020 The Gentlemen 2019 stumptown evo 21 bridges 2019 terminator dark fate 2019 1917 2019 star trek picard s01e04 Survivor S40E02 Bad Boys for Life 2020 the magicians s05e07 New Amsterdam S02E14 Jumanji The Next Level 2019 Stumptown S01E15 Fantasy Island 2020 Criminal Minds S15E09 NCIS S17E16 this is us s04e14 big bang theory español New Amsterdam picard s01e05 Modern Family S11E14 Dolittle 2020 ncis ford v ferrari 2019 star trek Picard This IS Us The Resident S03E15 criminal minds the magicians Parasite 2019 Doctor Who the flash  Avenue 5 Manifest yts 68 Whiskey S01E06 charlies angels 2019 criminal minds s15e10 Survivor Sonic the Hedgehog 2020 knives out 2019 vikings fbi most wanted s01e06 
Warning! Use a V.P.N when Downloading Torrents!
Your IP Address is 3.233.221.149. Location is United States
Your Internet Provider is tracking your torrent activity! Hide your IP ADDRESS with a V.P.N!
We strongly recommend using ExpressVP-N to anonymize your torrenting. 30 Day Money Back Guarantee!
Try it Now!
ETTV Recommended TV Shows
The.Goldbergs.2013.S07E15.HDTV.x264-SVA[ettv] torrent
Modern.Family.S11E14.HDTV.x264-SVA[ettv] torrent
The.Magicians.US.S05E07.WEB.H264-XLF[ettv] torrent
Criminal.Minds.S15E10.HDTV.x264-SVA[ettv] torrent

ETTV Recommended SD
The.Dustwalker.2020.HDRip.XviD.AC3-EVO torrent
Villains.2019.BRRip.XviD.AC3-EVO torrent
Queen of Spades.Through the Looking Glass.2019.BDRip.XviD.AC3-EVO torrent
Goldie.2019.HDRip.XViD.AC3-ETRG torrent

ETTV Recommended HD
Goldie.2019.1080p.WEB-DL.H264.AC3-EVO[EtHD] torrent
Adventure.Boyz.2019.1080p.WEB-DL.H264.AC3-EVO[EtHD] torrent
The.Last.Thing.He.Wanted.2020.1080p.NF.WEB-DL.DDP5.1.x264-NTG[EtHD] torrent
underneath.the.same.moon.2019.1080p.web.h264-watcher[EtHD] torrent

ETTV Recommended UHD
Frozen.II.2019.2160p.UHD.BluRay.x265-TERMiNAL torrent
Rogue.One.A.Star Wars Story 2016.4K.HDR.2160p.WEBDL Ita Eng x265-NAHOM torrent
Abominable.2019.4K.HDR.2160p.BDRip Ita Eng x265-NAHOM torrent
Star.Wars.The.Last.Jedi.2017.BDRip.UHD.HDR.Eng.Spa.TrueHD.ETRG torrent

ETTV Recommended Cam
The Photograph 2020 720p HDCAM-C1NEM4 torrent
Emma 2020 720p HDCAM-C1NEM4 torrent
Sonic the Hedgehog.2020.READNFO.HDCAM.x264-ETRG torrent
Brahms The Boy 2 2020 HDCAM x264 -ETRG torrent

ETTV Recommended Foreign
Valhalla.2019.NORDiC.1080p.WEB-DL.H.264-RAPiDCOWS[EtHD] torrent
Harry Potter 2001-2012 Octalogy Collection 720p BluRay x264 Hindi 2.0/5.1 - English 5.1 ESub - MoviePirate - Telly torrent
The.Body.2019.1080p.NF.WEB-DL.DD+5.1.x264-Telly torrent
Commando 3 (2019) Hindi 720p HDRip x264 AAC ESubs - Downloadhub torrent


Download Torrent "Vijetha 2018 Hindi 720p WEB-DL x264 AAC - MoviePirate - Telly.mkv"

IMDB Details
Description:

Srinivasa Rao (Murli Sharma) does his best to give his children everything they seek and fulfil even the smallest of their desires. His son Ram (Kalyaan Dhev) grows up oblivious to all the ...

Genre:

Drama

Download Torrent (Magnet)
Download Torrent (File)
Seeds: 353
Leechers: 485
Completed: 441 
Last Checked: 29-01-2020 18:19:51


Loading...
Details
Title:Vijetha 2018 Hindi 720p WEB-DL x264 AAC - MoviePirate - Telly.mkv
Description:



****************************
_____ _ _ 
|_ _|___ | || | _ _ 
| | / _ \| || || | | |
| || __/| || || |_| |
|_| \___||_||_| \__, |
|___/ 
****************************
Team Telly Proudly Presents
****************************
------------------
|Media Info|
------------------
General
Unique ID                                : 77112937583181155244706404649701202607 (0x3A03695BF01B2D6F16746A9E084FDAAF)
Complete name                            : Vijetha 2018 Hindi 720p WEB-DL x264 AAC - MoviePirate - Telly.mkv
Format                                   : Matroska
Format version                           : Version 4
File size                                : 908 MiB
Duration                                 : 1 h 55 min
Overall bit rate                         : 1 100 kb/s
Movie name                               : MoviePirate.Site
Encoded date                             : UTC 2020-01-29 17:53:30
Writing application                      : mkvmerge v42.0.0 ('Overtime') 64-bit
Writing library                          : libebml v1.3.10 + libmatroska v1.5.2
Video
ID                                       : 1
Format                                   : AVC
Format/Info                              : Advanced Video Codec
Format profile                           : [email protected]
Format settings                          : CABAC / 3 Ref Frames
Format settings, CABAC                   : Yes
Format settings, Reference frames        : 3 frames
Codec ID                                 : V_MPEG4/ISO/AVC
Duration                                 : 1 h 55 min
Bit rate                                 : 970 kb/s
Width                                    : 1 280 pixels
Height                                   : 720 pixels
Display aspect ratio                     : 16:9
Frame rate mode                          : Constant
Frame rate                               : 25.000 FPS
Color space                              : YUV
Chroma subsampling                       : 4:2:0
Bit depth                                : 8 bits
Scan type                                : Progressive
Bits/(Pixel*Frame)                       : 0.042
Stream size                              : 801 MiB (88%)
Title                                    : MoviePirate.Site
Writing library                          : x264 core 155 r2901 7d0ff22
Language                                 : Hindi
Default                                  : Yes
Forced                                   : No
Color range                              : Limited
Color primaries                          : BT.709
Transfer characteristics                 : BT.709
Matrix coefficients                      : BT.709
Audio
ID                                       : 2
Format                                   : AAC LC
Format/Info                              : Advanced Audio Codec Low Complexity
Codec ID                                 : A_AAC-2
Duration                                 : 1 h 55 min
Bit rate                                 : 128 kb/s
Channel(s)                               : 2 channels
Channel layout                           : L R
Sampling rate                            : 44.1 kHz
Frame rate                               : 43.066 FPS (1024 SPF)
Compression mode                         : Lossy
Stream size                              : 106 MiB (12%)
Title                                    : MoviePirate.Site
Language                                 : Hindi
Default                                  : Yes
Forced                                   : No
****************************
Telly.cc
Team Telly Official Site
****************************
[size=29]www.MoviePirate.Site[/size]
Enjoy Exclusives Content only on Telly.cc


Category:Movies > Dubs/Dual Audio
Lang:Hindi  Hindi
Total Size:908 MB
Info Hash:eb7696b2f0145aa1100de4cd700f7eb5867d3a70
Added By:uploader6969
Date Added:29-01-2020 18:19:48

  

Files

File List: 
 File Size
Vijetha 2018 Hindi 720p WEB-DL x264 AAC - MoviePirate - Telly.mkv908 MB



Loading...
Comments

There are currently no comments. Be the first one to write something !

Disclaimer: None of the files shown here are actually hosted or transmitted by this server. The links are provided solely by this site's users. The site moderation is also a service provided by the site's users. The administrator of this site (ettv.tv) cannot be held responsible for what its users post, or any other actions of its users. You may not use this site to distribute or download any material when you do not have the legal rights to do so. It is your own responsibility to adhere to these terms.